<?xml version="1.0" standalone="no"?>
<!DOCTYPE svg PUBLIC "-//W3C//DTD SVG 1.1//EN" "http://www.w3.org/Graphics/SVG/1.1/DTD/svg11.dtd" >
<svg xmlns="http://www.w3.org/2000/svg">
<metadata>Generated by IcoMoon</metadata>
<defs>
<font id="icomoon" horiz-adv-x="512">
<font-face units-per-em="512" ascent="480" descent="-32" />
<missing-glyph horiz-adv-x="512" />
<glyph unicode="&#x20;" horiz-adv-x="256" d="" />
<glyph unicode="&#xe026;" glyph-name="align-justify" d="M64 362.667h384q8.834 0 15.084-6.25t6.25-15.083-6.25-15.084-15.084-6.25h-384q-8.834 0-15.084 6.25t-6.25 15.084 6.25 15.083 15.084 6.25zM64 106.667h384q8.834 0 15.084-6.25t6.25-15.084-6.25-15.084-15.084-6.25h-384q-8.834 0-15.084 6.25t-6.25 15.084 6.25 15.084 15.084 6.25zM64 192h384q8.834 0 15.084-6.25t6.25-15.084-6.25-15.084-15.084-6.25h-384q-8.834 0-15.084 6.25t-6.25 15.084 6.25 15.084 15.084 6.25zM64 277.333h384q8.834 0 15.084-6.25t6.25-15.084-6.25-15.084-15.084-6.25h-384q-8.834 0-15.084 6.25t-6.25 15.084 6.25 15.084 15.084 6.25z" />
<glyph unicode="&#xe027;" glyph-name="basket3" horiz-adv-x="672" d="M632 256h-592c-2.464 0-4.8-1.136-6.32-3.072s-2.048-4.464-1.456-6.864l64.096-256.272c1.536-5.392 6.256-21.792 23.68-21.792h432c17.488 0 22.16 16.416 23.76 22.064l64 256c0.592 2.384 0.064 4.928-1.456 6.864-1.504 1.936-3.84 3.072-6.304 3.072zM560.32-5.808c-2.912-10.192-5.92-10.192-8.32-10.192h-432c-2.384 0-5.376 0-8.24 9.936l-61.504 246.064h571.504l-61.44-245.808zM296 32c4.416 0 8 3.584 8 8v144c0 4.416-3.584 8-8 8s-8-3.584-8-8v-144c0-4.416 3.584-8 8-8zM183.984 32c0.304 0 0.592 0.016 0.912 0.048 4.384 0.496 7.552 4.448 7.056 8.832l-16 144c-0.48 4.4-4.32 7.504-8.848 7.072-4.384-0.496-7.552-4.448-7.056-8.832l16-144c0.448-4.096 3.92-7.12 7.936-7.12zM392 32c4.416 0 8 3.584 8 8v144c0 4.416-3.584 8-8 8s-8-3.584-8-8v-144c0-4.416 3.584-8 8-8zM487.104 32.048c0.32-0.032 0.608-0.048 0.912-0.048 4.016 0 7.488 3.024 7.936 7.12l16 144c0.48 4.384-2.672 8.336-7.056 8.832-4.592 0.448-8.352-2.672-8.848-7.072l-16-144c-0.48-4.384 2.672-8.336 7.056-8.832zM552 288c1.856 0 3.712 0.64 5.232 1.952 3.344 2.896 3.696 7.936 0.816 11.28l-152 176c-2.896 3.36-7.936 3.696-11.28 0.832-3.344-2.896-3.696-7.936-0.816-11.28l152-176c1.584-1.84 3.808-2.784 6.048-2.784zM285.056 478.192c-3.408 2.768-8.448 2.304-11.248-1.136l-144-176c-2.8-3.408-2.304-8.448 1.12-11.264 1.488-1.2 3.296-1.792 5.072-1.792 2.32 0 4.608 0.992 6.192 2.944l144 176c2.8 3.408 2.288 8.448-1.136 11.248zM664 320h-64c-4.416 0-8-3.584-8-8s3.584-8 8-8h64c4.416 0 8 3.584 8 8s-3.584 8-8 8zM216 304h256c4.416 0 8 3.584 8 8s-3.584 8-8 8h-256c-4.416 0-8-3.584-8-8s3.584-8 8-8zM8 304h80c4.416 0 8 3.584 8 8s-3.584 8-8 8h-80c-4.416 0-8-3.584-8-8s3.584-8 8-8z" />
<glyph unicode="&#xe036;" glyph-name="search5" d="M213.333 448q39 0 74.583-15.25t61.25-40.916 40.916-61.25 15.25-74.584q0-33.5-10.916-64.167t-31.084-55.666l121.166-121q6.166-6.166 6.166-15.166 0-9.166-6.084-15.25t-15.25-6.084q-9 0-15.166 6.166l-121 121.166q-25-20.166-55.666-31.084t-64.166-10.916q-39 0-74.584 15.25t-61.25 40.916-40.916 61.25-15.25 74.584 15.25 74.584 40.916 61.25 61.25 40.916 74.584 15.25zM213.333 405.333q-30.333 0-58-11.834t-47.666-31.833-31.834-47.667-11.834-58 11.834-58 31.834-47.666 47.666-31.834 58-11.834 58 11.834 47.666 31.834 31.834 47.666 11.834 58-11.834 58-31.834 47.667-47.666 31.833-58 11.834z" />
<glyph unicode="&#xe037;" glyph-name="magnifying-glass2" d="M168 480c-92.64 0-168-75.36-168-168s75.36-168 168-168c43.6 0 83.248 16.832 113.136 44.16 0.352-0.624 0.672-1.28 1.216-1.824l34.416-34.416c-2.88-4.864-4.512-10.368-4.512-16.176 0-8.544 3.328-16.576 9.376-22.624l135.76-135.76c6.032-6.032 14.064-9.36 22.608-9.36s16.576 3.328 22.624 9.376 9.376 14.080 9.376 22.624-3.328 16.576-9.376 22.624l-135.76 135.76c-10.144 10.144-26.544 11.664-38.72 4.784l-34.48 34.48c-0.544 0.544-1.184 0.864-1.824 1.216 27.328 29.888 44.16 69.536 44.16 113.136 0 92.64-75.36 168-168 168zM355.552 147.072l135.76-135.76c3.024-3.024 4.688-7.040 4.688-11.312s-1.664-8.288-4.688-11.312c-6.064-6.032-16.56-6.032-22.624 0l-135.76 135.76c-3.008 3.024-4.688 7.040-4.688 11.312s1.664 8.288 4.688 11.312c3.024 3.008 7.040 4.688 11.312 4.688s8.272-1.664 11.312-4.688zM168 160c-83.808 0-152 68.192-152 152s68.192 152 152 152 152-68.192 152-152-68.192-152-152-152zM168 432c-66.176 0-120-53.824-120-120s53.824-120 120-120 120 53.824 120 120-53.824 120-120 120zM168 208c-57.344 0-104 46.656-104 104s46.656 104 104 104 104-46.656 104-104-46.656-104-104-104z" />
<glyph unicode="&#xe040;" glyph-name="circle-plus" d="M256 448q47.834 0 91.25-18.584t74.834-50 50-74.833 18.584-91.25-18.584-91.25-50-74.834-74.834-50-91.25-18.584-91.25 18.584-74.834 50-50 74.834-18.584 91.25 18.584 91.25 50 74.833 74.834 50 91.25 18.584zM256 405.333q-39 0-74.584-15.25t-61.25-40.917-40.916-61.25-15.25-74.584 15.25-74.584 40.916-61.25 61.25-40.916 74.584-15.25 74.584 15.25 61.25 40.916 40.916 61.25 15.25 74.584-15.25 74.584-40.916 61.25-61.25 40.917-74.584 15.25zM256 320q8.834 0 15.084-6.25t6.25-15.084v-64h64q8.834 0 15.084-6.25t6.25-15.084-6.25-15.084-15.084-6.25h-64v-64q0-8.834-6.25-15.084t-15.084-6.25-15.084 6.25-6.25 15.084v64h-64q-8.834 0-15.084 6.25t-6.25 15.084 6.25 15.084 15.084 6.25h64v64q0 8.834 6.25 15.084t15.084 6.25z" />
<glyph unicode="&#xe041;" glyph-name="circle-minus" d="M256 448q47.834 0 91.25-18.584t74.834-50 50-74.833 18.584-91.25-18.584-91.25-50-74.834-74.834-50-91.25-18.584-91.25 18.584-74.834 50-50 74.834-18.584 91.25 18.584 91.25 50 74.833 74.834 50 91.25 18.584zM256 405.333q-39 0-74.584-15.25t-61.25-40.917-40.916-61.25-15.25-74.584 15.25-74.584 40.916-61.25 61.25-40.916 74.584-15.25 74.584 15.25 61.25 40.916 40.916 61.25 15.25 74.584-15.25 74.584-40.916 61.25-61.25 40.917-74.584 15.25zM170.667 234.667h170.667q8.834 0 15.084-6.25t6.25-15.084-6.25-15.084-15.084-6.25h-170.667q-8.833 0-15.083 6.25t-6.25 15.084 6.25 15.084 15.084 6.25z" />
<glyph unicode="&#xe044;" glyph-name="square-plus" d="M85.334 448h341.334q26.5 0 45.25-18.75t18.75-45.25v-341.334q0-26.5-18.75-45.25t-45.25-18.75h-341.334q-26.5 0-45.25 18.75t-18.75 45.25v341.334q0 26.5 18.75 45.25t45.25 18.75zM426.666 405.333h-341.334q-8.834 0-15.084-6.25t-6.25-15.084v-341.334q0-8.834 6.25-15.084t15.084-6.25h341.334q8.834 0 15.084 6.25t6.25 15.084v341.334q0 8.834-6.25 15.084t-15.084 6.25zM256 320q8.834 0 15.084-6.25t6.25-15.084v-64h64q8.834 0 15.084-6.25t6.25-15.084-6.25-15.084-15.084-6.25h-64v-64q0-8.834-6.25-15.084t-15.084-6.25-15.084 6.25-6.25 15.084v64h-64q-8.834 0-15.084 6.25t-6.25 15.084 6.25 15.084 15.084 6.25h64v64q0 8.834 6.25 15.084t15.084 6.25z" />
<glyph unicode="&#xe045;" glyph-name="square-minus" d="M85.334 448h341.334q26.5 0 45.25-18.75t18.75-45.25v-341.334q0-26.5-18.75-45.25t-45.25-18.75h-341.334q-26.5 0-45.25 18.75t-18.75 45.25v341.334q0 26.5 18.75 45.25t45.25 18.75zM426.666 405.333h-341.334q-8.834 0-15.084-6.25t-6.25-15.084v-341.334q0-8.834 6.25-15.084t15.084-6.25h341.334q8.834 0 15.084 6.25t6.25 15.084v341.334q0 8.834-6.25 15.084t-15.084 6.25zM170.667 234.667h170.667q8.834 0 15.084-6.25t6.25-15.084-6.25-15.084-15.084-6.25h-170.667q-8.833 0-15.083 6.25t-6.25 15.084 6.25 15.084 15.084 6.25z" />
<glyph unicode="&#xe05d;" glyph-name="facebook5" d="M256 480.544c-141.456 0-256.56-115.072-256.56-256.544s115.104-256.544 256.56-256.544 256.56 115.072 256.56 256.544-115.104 256.544-256.56 256.544zM256-15.456c-132.032 0-239.44 107.424-239.44 239.456s107.408 239.456 239.44 239.456 239.44-107.424 239.44-239.456-107.408-239.456-239.44-239.456zM312 368h-42.688c-54.368 0.544-61.312-33.104-61.312-69.52v-26.48h-24c-4.72 0.544-8.56-3.28-8-8v-48c-0.56-4.72 3.28-8.544 8-8h24v-120c-0.496-4.72 3.328-8.544 8.048-8h48.88c4.72-0.544 8.544 3.28 7.040 8l0.032 120h40c4.72-0.544 8.56 3.28 8 8v48c0.56 4.72-3.28 8.544-8 8h-40.048l0.048 24c1.552 10.224 1.552 8.56 11.040 8h28.624c2.224 0.496 4.592 0.224 6.256 1.84s2.624 3.824 2.064 6.16v48c0.576 4.72-3.264 8.544-7.984 8zM303.44 320.896l-20.064 0.768c-24.848 0-26.928-13.488-26.928-27.296l-0.064-30.336c0-2.272 0.896-4.448 2.496-6.064 1.6-1.6 3.776-2.496 6.048-2.496h39.072v-30.912h-39.040c-4.72 0-8.544-3.824-8.56-8.544l-0.016-120.016h-32.384v120c0 4.72-3.216 8.544-7.952 8.544h-24.048v30.912h24.048c2.272 0 4.448 0.896 6.048 2.496 1.6 1.616 1.888 3.792 1.888 6.064v34.48c0 35.872 7.248 52.96 45.312 52.96h34.128v-30.56z" />
<glyph unicode="&#xe05e;" glyph-name="twitter5" d="M256 480.544c-141.456 0-256.56-115.072-256.56-256.544s115.104-256.544 256.56-256.544 256.56 115.072 256.56 256.544-115.104 256.544-256.56 256.544zM256-15.456c-132.032 0-239.44 107.424-239.44 239.456s107.408 239.456 239.44 239.456 239.44-107.424 239.44-239.456-107.408-239.456-239.44-239.456zM396.704 303.264c1.76 3.264 3.232 6.704 4.368 10.288 1.072 3.392-0.032 7.072-2.816 9.296-2.768 2.208-6.64 2.464-9.68 0.672-8.208-4.88-17.040-8.48-26.336-10.768-11.168 10.096-25.84 15.792-40.992 15.792-33.68 0-61.072-27.392-61.072-61.040 0-0.848 0.016-1.68 0.048-2.528-35.76 4.464-68.768 22.64-91.76 50.848-1.76 2.176-4.48 3.312-7.296 3.12-2.8-0.224-5.312-1.792-6.72-4.24-5.408-9.28-8.272-19.888-8.272-30.704 0-10.24 2.544-20.096 7.216-28.832-1.184-0.192-2.352-0.624-3.424-1.248-2.608-1.552-4.224-4.672-4.224-7.696 0-18.16 8.080-34.832 21.104-46.16-0.192-0.176-0.368-0.368-0.56-0.56-2-2.272-2.656-5.408-1.728-8.288 5.616-17.504 18.624-31.136 34.944-37.84-16.656-8.24-36-11.456-54.496-9.264-3.904 0.352-7.696-1.856-9.056-5.632-1.328-3.744 0.080-7.92 3.44-10.080 25.472-16.32 54.896-24.944 85.104-24.944 98.88 0 157.984 80.32 157.984 157.968 0 0.88 0 1.744-0.016 2.624 9.552 7.456 17.84 16.368 24.656 26.56 2.112 3.152 1.888 7.344-0.56 10.256-2.416 2.864-6.4 3.856-9.856 2.4zM368.784 275.184c-2.352-1.696-3.696-4.464-3.552-7.376 0.096-2.112 0.144-4.256 0.144-6.368 0-69.248-52.688-140.88-140.864-140.88-15.824 0-31.424 2.656-46.192 7.808 17.68 3.376 34.256 10.912 48.72 22.24 2.848 2.24 3.984 6.016 2.832 9.456-1.152 3.424-4.336 5.76-7.952 5.824-14.256 0.288-27.184 7.376-35.104 18.592 4.048 0.272 8.016 0.944 11.872 1.984 3.824 1.040 6.416 4.576 6.288 8.544-0.128 3.952-2.976 7.312-6.864 8.096-16.048 3.216-28.64 15.088-33.296 30.48 4.256-1.072 8.624-1.696 12.992-1.84 3.76 0.016 7.248 2.32 8.416 5.936s-0.208 7.6-3.392 9.712c-12.24 8.192-19.552 21.856-19.552 36.592 0 3.568 0.432 7.088 1.264 10.528 27.696-28.4 65.28-45.552 105.088-47.552 2.816-0.016 5.28 0.992 6.992 3.056s2.368 4.8 1.76 7.424c-0.752 3.248-1.136 6.624-1.136 10.032 0 24.24 19.728 43.952 43.968 43.952 12.112 0 23.808-5.056 32.080-13.888 2.016-2.16 4.992-3.104 7.904-2.544 2.64 0.528 5.248 1.136 7.824 1.84-1.152-0.864-2.352-1.664-3.616-2.416-3.456-2.064-4.992-6.288-3.696-10.096s5.184-6.304 9.104-5.712c0.976 0.112 1.936 0.24 2.912 0.368-1.584-1.312-3.248-2.576-4.944-3.792z" />
<glyph unicode="&#xe05f;" glyph-name="googleplus5" d="M256 480.544c-141.472 0-256.544-115.072-256.544-256.544s115.072-256.544 256.544-256.544 256.544 115.072 256.544 256.544-115.072 256.544-256.544 256.544zM256-15.456c-132.032 0-239.456 107.424-239.456 239.456s107.424 239.456 239.456 239.456 239.456-107.424 239.456-239.456-107.424-239.456-239.456-239.456zM288.544 327.008c0 4.72-3.824 8.544-8.544 8.544h-68.16c-0.416 0-0.752-0.176-1.152-0.24-0.912 0.032-1.76 0.24-2.688 0.24-35.6 0-64.544-24.688-64.544-55.040s28.96-55.040 64.544-55.040c4.912 0 9.648 0.56 14.256 1.456-1.2-4.656-1.856-10-1.056-15.968 0.752-5.584 2.976-10.928 5.888-16.128-5.936 1.040-12.048 1.744-18.416 1.744-44.032 0-79.856-26.48-79.856-59.040s35.824-59.040 79.856-59.040c44.048 0 79.872 26.48 79.872 59.040 0 16.736-9.568 31.792-24.752 42.544-0.608 1.536-1.52 2.96-2.992 3.952-13.568 9.184-21.168 18.944-22.608 28.992-1.6 11.184 4.992 19.36 5.328 19.776 0.72 0.848 1.216 1.808 1.552 2.8 16.576 9.968 27.488 26.352 27.488 44.928 0 14.736-6.912 28.064-18 37.952h25.44c4.72-0.032 8.544 3.808 8.544 8.528zM208.672 95.552c-34.608 0-62.768 18.832-62.768 41.952s28.16 41.952 62.768 41.952 62.784-18.832 62.784-41.952-28.176-41.952-62.784-41.952zM208 242.544c-26.16 0-47.456 17.024-47.456 37.952s21.296 37.952 47.456 37.952 47.456-17.024 47.456-37.952-21.296-37.952-47.456-37.952zM404.992 288h-37.456v38c0 4.72-3.824 8.544-8.544 8.544s-8.544-3.824-6.992-6.544v-40h-39.008c-4.72 0.544-8.544-3.28-8.544-8s3.824-8.544 8.544-8h39.008v-38c0-4.72 2.288-8.544 7.008-8.544s8.544 3.824 8.544 8.544v38h37.456c4.72-0.544 8.544 3.28 8.544 8s-3.84 8.544-8.56 8z" />
<glyph unicode="&#xe060;" glyph-name="rss2" d="M256 480.544c-141.472 0-256.544-115.072-256.544-256.544s115.072-256.544 256.544-256.544 256.544 115.072 256.544 256.544-115.072 256.544-256.544 256.544zM256-15.456c-132.032 0-239.456 107.424-239.456 239.456s107.424 239.456 239.456 239.456 239.456-107.424 239.456-239.456-107.424-239.456-239.456-239.456zM168.032 256.784c-4.72 0-8.544-3.824-8.544-8.544s3.824-8.544 8.544-8.544c36.048 0 66.24-11.152 87.264-32.256 21.040-21.088 32.16-51.328 32.16-87.44 0-4.72 3.824-8.544 8.544-8.544s8.544 3.824 8.544 8.544c0.016 40.736-12.832 75.136-37.12 99.52-24.336 24.368-58.688 37.264-99.392 37.264zM168.080 335.568c-4.72 0-8.544-3.824-8.544-8.544s3.824-8.544 8.544-8.544c114.24 0 200.368-85.328 200.368-198.464 0-4.72 3.824-8.544 8.544-8.544s8.544 3.824 8.544 8.544c0.016 122.88-93.472 215.552-217.456 215.552zM191.984 177.888c-17.936 0-32.528-14.608-32.528-32.56 0-17.936 14.592-32.528 32.528-32.528 17.952 0 32.56 14.592 32.56 32.544-0.016 17.952-14.624 32.544-32.56 32.544zM191.984 129.888c-8.512 0-15.44 6.928-15.44 15.44 0 8.528 6.928 15.472 15.44 15.472s15.456-6.96 15.472-15.472c0-8.512-6.944-15.44-15.472-15.44z" />
<glyph unicode="&#xe061;" glyph-name="tumblr3" d="M256 480.544c-141.472 0-256.544-115.072-256.544-256.544s115.072-256.544 256.544-256.544 256.544 115.072 256.544 256.544-115.072 256.544-256.544 256.544zM256-15.456c-132.032 0-239.456 107.424-239.456 239.456s107.424 239.456 239.456 239.456 239.456-107.424 239.456-239.456-107.424-239.456-239.456-239.456zM327.968 288h-55.968v56.016c0.528 4.72-3.296 8.544-8.016 8.544h-41.264c-4.32 0-7.952-3.2-8.48-7.504-1.52-12.208-4.256-22.224-8.112-29.808-3.776-7.472-8.896-13.968-15.2-19.344-5.136-4.368-13.968-8.672-25.52-12.4-3.536-1.136-5.92-4.432-5.408-8.144v-43.344c-0.512-4.72 3.312-8.544 8.032-8.016l23.968-16v-74.688c-0.544 4.816 0.592 1.552 2.816-3.696l0.944-2.272c0.080-0.208 8.192-20.368 17.952-28.784 7.2-6.176 15.92-10.976 25.92-14.272 9.36-3.056 17.296-4.832 30.256-4.832 10.912 0 21.232 1.104 30.72 3.312 10.896 2.544 20.752 5.984 31.008 10.832 3.008 1.408 4.912 4.416 4.384 7.728v38.48c0.512 3.136-1.2 6.032-3.968 7.536s-6.128 1.344-8.768-0.384c-11.28-7.408-17.328-8.736-28.736-8.736-5.312 0-9.92 1.088-14.096 3.376-1.68 3.056-4.112 12.448-5.040 16.144-0.832 3.184-1.536 5.792-2.016 7.088-0.88 2.336-0.88 10.688-0.864 20.352l0.016 38.816h55.44c4.72-0.528 8.544 3.296 8.032 8.016v48c0.512 4.72-3.312 8.544-8.032 7.984zM319.424 240h-55.44c-4.72 0.56-8.544-3.264-7.984-7.984l-0.032-46.784c-0.576-13.648-0.576-21.152 1.392-26.4 0.368-0.976 0.848-2.944 1.472-5.344 4.064-15.824 6.624-22.944 11.888-26.032 7.008-4.192 15.008-6.32 23.808-6.32 9.168 0 16.528 0.8 24.896 4.304v-18.56c-7.44-3.184-14.784-5.584-22.72-7.44-8.208-1.904-17.216-2.88-26.832-2.88-10.784 0-16.864 1.344-24.928 3.984-7.84 2.592-14.624 6.304-20.112 11.008-4.352 3.744-10.464 15.264-13.2 22.128l-1.056 2.576c-1.52 3.6-2.032 4.816-2.576 13.056v82.704c0.544 4.72-3.28 8.544-8 8.544h-23.424v28.704c11.008 4.016 19.536 8.592 25.424 13.632 8.064 6.848 14.576 15.12 19.376 24.608 3.888 7.664 6.816 17.024 8.72 27.968h25.344v-55.456c0-4.72 3.824-8.544 8.544-8.016h55.44v-32z" />
<glyph unicode="&#xe062;" glyph-name="linkedin2" d="M312.24 288.768c-10.848 0-18.88-2.736-25.168-6.192-1.008 3.584-4.32 6.208-8.224 5.424h-47.744c-4.72 0.784-8.544-3.040-7.088-8v-176c-1.456-4.48 2.368-8.32 7.088-8h47.744c4.72-0.32 8.544 3.52 8.544 8.24l-0.016 106.368c-0.016 0.048-0.192 5.136 3.024 8.64 2.576 2.784 7.008 4.208 13.136 4.208 10.208 0 14.752-4.176 16.448-13.52v-105.696c-1.68-4.72 2.144-8.56 6.864-8.24h50.32c4.72-0.32 8.544 3.52 6.848 8.24v109.248c1.68 55.552-37.888 75.28-71.776 75.28zM368.608 112h-33.216v97.936c0 18.896-12.208 30.608-31.84 30.608-11.104 0-19.744-3.264-25.696-9.696-8.272-8.96-7.632-20.32-5.856-22.848v-96h-32.352v159.68h30.656v-5.376c0-3.248 1.84-6.24 4.768-7.664s6.4-1.072 8.992 0.896l2.24 1.728c6.48 5.104 13.184 10.4 25.952 10.4 13.216 0 56.368-4.208 56.368-58.192v-101.472zM176 368.544c-17.952 0-32.544-14.592-32.544-32.544s14.592-32.544 32.544-32.544 32.544 14.592 32.544 32.544-14.592 32.544-32.544 32.544zM176 320.544c-8.512 0-15.456 6.944-15.456 15.456s6.944 15.456 15.456 15.456 15.456-6.944 15.456-15.456-6.944-15.456-15.456-15.456zM198.848 288.784h-47.488c-4.72 0-8.544-3.824-7.36-8.784v-176c-1.184-4.48 2.64-8.32 7.36-8h47.488c4.72-0.32 8.544 3.52 8.544 8.24v176c0 4.72-3.824 8.544-8.544 8.544zM192 112h-32.096v159.68h32.096v-159.68zM256 480.544c-141.472 0-256.544-115.072-256.544-256.544s115.072-256.544 256.544-256.544 256.544 115.072 256.544 256.544-115.072 256.544-256.544 256.544zM256-15.456c-132.032 0-239.456 107.424-239.456 239.456s107.424 239.456 239.456 239.456 239.456-107.424 239.456-239.456-107.424-239.456-239.456-239.456z" />
<glyph unicode="&#xe063;" glyph-name="dribbble" d="M256 480.544c-141.472 0-256.544-115.072-256.544-256.544s115.072-256.544 256.544-256.544 256.544 115.072 256.544 256.544-115.072 256.544-256.544 256.544zM256-15.456c-132.032 0-239.456 107.424-239.456 239.456s107.424 239.456 239.456 239.456 239.456-107.424 239.456-239.456-107.424-239.456-239.456-239.456zM349.616 311.92c-24.608 26.208-57.84 40.624-93.616 40.624-16.8 0-33.2-3.232-48.752-9.632-44.128-18.080-74.448-58.752-79.152-106.096-0.4-4.224-0.64-8.48-0.64-12.816 0-38.848 17.312-75.2 47.536-99.76 22.832-18.56 51.616-28.784 81.008-28.784 18.544 0 36.576 3.968 53.632 11.808 34.816 16.032 60.48 46.416 70.416 83.376 0 0 0 0.016 0 0.016 2.976 11.2 4.496 22.416 4.496 33.344 0 32.736-12.4 63.952-34.928 87.92zM365.376 203.12c-2.832 0.608-5.584 0.88-8.4 1.376-3.728 0.656-7.456 1.344-11.136 1.824-4.368 0.56-8.64 0.848-12.928 1.136-3.456 0.224-6.912 0.528-10.304 0.576-1.056 0.016-2.176 0.176-3.232 0.176-5.632 0-11.216-0.272-16.768-0.752-0.72-0.064-1.424-0.208-2.144-0.272-4.48-0.448-8.944-0.96-13.328-1.728-0.72 1.872-1.536 3.632-2.272 5.488-2.976 7.536-6.048 14.96-9.216 22.272-0.784 1.792-1.472 3.68-2.256 5.456 1.68 0.672 3.184 1.424 4.816 2.128 1.664 0.72 3.328 1.424 4.928 2.176 3.552 1.664 6.928 3.392 10.192 5.184 1.040 0.576 2.144 1.104 3.152 1.68 4.16 2.4 8.080 4.912 11.776 7.488 0.88 0.624 1.68 1.264 2.528 1.888 2.784 2.032 5.456 4.080 7.968 6.16 1.088 0.912 2.112 1.808 3.152 2.72 2.192 1.92 4.272 3.84 6.24 5.76 0.896 0.864 1.792 1.728 2.64 2.608 2.24 2.288 4.32 4.576 6.288 6.848 0.384 0.448 0.832 0.896 1.2 1.344 2.096 2.496 4.064 4.96 5.856 7.376 15.104-19.472 23.328-43.248 23.328-68.032 0-6.832-0.704-13.824-2.080-20.88zM256 335.456c28.736 0 55.584-10.752 76.352-30.432-0.224-0.336-0.416-0.64-0.656-0.96-0.608-0.848-1.28-1.712-1.92-2.56-1.168-1.552-2.4-3.12-3.712-4.72-0.784-0.944-1.6-1.904-2.432-2.848-1.376-1.568-2.832-3.152-4.352-4.736-0.912-0.96-1.84-1.92-2.816-2.88-1.712-1.68-3.568-3.36-5.456-5.024-0.944-0.832-1.824-1.664-2.816-2.496-2.944-2.464-6.048-4.896-9.408-7.248-0.208-0.144-0.464-0.288-0.688-0.448-3.152-2.192-6.512-4.32-10.048-6.368-1.296-0.752-2.72-1.456-4.080-2.192-2.592-1.408-5.248-2.784-8.032-4.080-1.712-0.8-3.52-1.568-5.312-2.32-1.44-0.608-2.992-1.168-4.48-1.76-0.4 0.848-0.816 1.584-1.216 2.432-3.344 6.96-6.688 13.712-10 20.048-0.256 0.496-0.512 0.944-0.768 1.44-3.168 6.048-6.272 11.728-9.344 17.184-0.704 1.248-1.392 2.496-2.096 3.712-3.088 5.408-6.080 10.512-8.96 15.28-0.656 1.088-1.264 2.064-1.904 3.104-2.592 4.224-5.088 8.192-7.44 11.84-0.24 0.368-0.528 0.848-0.768 1.216 10.48 3.184 21.328 4.816 32.352 4.816zM207.376 324.256c0.096-0.144 0.192-0.288 0.288-0.432 2.528-3.856 5.28-8.192 8.144-12.8 0.608-0.976 1.232-1.984 1.84-2.992 2.96-4.816 6.016-9.936 9.2-15.504 0.352-0.608 0.704-1.264 1.056-1.872 2.992-5.248 6.064-10.864 9.184-16.72 0.592-1.12 1.184-2.208 1.792-3.36 3.312-6.304 6.656-12.976 10.016-19.936 0.24-0.496 0.48-1.008 0.72-1.504-5.312-1.488-10.528-3.104-16.192-4.176-0.864-0.16-1.76-0.272-2.624-0.432-17.184-3.040-35.936-4.128-56-3.36-1.552 0.064-3.056 0.064-4.64 0.144-7.712 0.4-15.776 1.328-23.872 2.288 6.24 35.12 28.88 65.056 61.088 80.656zM144.544 224c0 0.768 0.016 1.552 0.032 2.32 2.272-0.272 4.384-0.288 6.64-0.512 6.272-0.64 12.432-1.136 18.496-1.456 3.6-0.192 7.168-0.336 10.688-0.4 2.16-0.048 4.464-0.256 6.592-0.256 0 0 0 0 0.016 0 4.592 0 9.008 0.272 13.456 0.48 1.872 0.080 3.792 0.080 5.632 0.192 8.272 0.544 16.304 1.456 24.080 2.704 2.016 0.32 3.92 0.768 5.888 1.136 5.968 1.12 11.76 2.448 17.376 4 1.168 0.32 2.448 0.48 3.584 0.832 0.816-1.808 1.6-3.648 2.4-5.488 2.992-6.848 5.904-13.808 8.704-20.864 0.672-1.696 1.344-3.408 2.016-5.12-1.728-0.496-3.328-1.12-5.024-1.664-2.208-0.688-4.4-1.392-6.528-2.16-3.504-1.248-6.864-2.624-10.192-4.048-1.808-0.784-3.664-1.504-5.424-2.336-3.984-1.872-7.808-3.888-11.52-5.984-0.896-0.496-1.856-0.96-2.736-1.472-4.56-2.656-8.88-5.472-13.008-8.368-1.152-0.8-2.192-1.648-3.312-2.464-2.912-2.144-5.776-4.288-8.464-6.496-1.36-1.12-2.624-2.24-3.936-3.36-2.288-1.968-4.496-3.936-6.624-5.92-1.28-1.216-2.528-2.4-3.744-3.616-1.936-1.92-3.792-3.808-5.568-5.712-1.136-1.216-2.288-2.416-3.36-3.616-0.4-0.448-0.864-0.912-1.264-1.344-22.256 21.040-34.896 50.112-34.896 80.992zM192.832 132.208c0.288 0.32 0.512 0.608 0.8 0.928 0.96 1.072 2.016 2.144 3.024 3.232 1.632 1.744 3.328 3.488 5.104 5.232 1.136 1.12 2.32 2.24 3.52 3.36 1.856 1.744 3.808 3.488 5.808 5.216 1.28 1.104 2.56 2.208 3.888 3.296 2.208 1.808 4.544 3.568 6.896 5.312 1.296 0.96 2.544 1.936 3.872 2.864 3.2 2.24 6.56 4.384 10.016 6.464 0.64 0.384 1.216 0.8 1.872 1.184 4.128 2.4 8.464 4.656 12.976 6.768 1.376 0.64 2.848 1.184 4.256 1.792 3.248 1.408 6.544 2.768 9.984 3.984 1.824 0.64 3.712 1.2 5.6 1.792 1.856 0.576 3.808 1.072 5.728 1.6 3.6-10.032 7.12-20.128 10.272-30.464 0.144-0.464 0.304-0.896 0.448-1.36 3.312-10.976 6.192-22.16 8.96-33.392-34.208-13.232-73.312-8.384-103.024 12.192zM311.776 127.632c-2.528 10.048-5.312 20.016-8.272 29.872-0.112 0.384-0.208 0.784-0.32 1.168-3.088 10.192-6.384 20.24-9.888 30.128 2.32 0.368 4.624 0.8 6.976 1.072 1.952 0.224 3.904 0.48 5.872 0.624 5.712 0.432 11.488 0.608 17.376 0.48 0.656-0.016 1.296 0.048 1.952 0.016 6.608-0.224 13.312-0.864 20.112-1.792 1.84-0.256 3.712-0.64 5.568-0.944 3.168-0.528 6.384-1.232 9.584-1.904-8.864-24.8-26.144-45.536-48.96-58.72z" />
<glyph unicode="&#xe095;" glyph-name="arrow-right4" d="M298.666 384q9 0 15.166-6.166l149.333-149.334q6.166-6.167 6.166-15.167t-6.166-15.166l-149.333-149.334q-6.166-6.166-15.166-6.166-9.166 0-15.25 6.084t-6.084 15.25q0 9 6.166 15.166l113 112.834h-332.5q-8.834 0-15.084 6.25t-6.25 15.084 6.25 15.084 15.084 6.25h332.5l-113 112.833q-6.166 6.167-6.166 15.167 0 9.166 6.084 15.25t15.25 6.083z" />
<glyph unicode="&#xe097;" glyph-name="arrow-down4" d="M256 426.667q8.834 0 15.084-6.25t6.25-15.083v-332.5l112.834 113q6.166 6.166 15.166 6.166 9.166 0 15.25-6.084t6.084-15.25q0-9-6.166-15.166l-149.334-149.334q-6.166-6.166-15.166-6.166t-15.166 6.166l-149.333 149.333q-6.166 6.166-6.166 15.166 0 9.166 6.084 15.25t15.25 6.084q9 0 15.166-6.166l112.834-113v332.5q0 8.834 6.25 15.084t15.084 6.25z" />
<glyph unicode="&#xe102;" glyph-name="grid2" d="M341.334 448h85.334q26.5 0 45.25-18.75t18.75-45.25v-85.333q0-26.5-18.75-45.25t-45.25-18.75h-85.334q-26.5 0-45.25 18.75t-18.75 45.25v85.333q0 26.5 18.75 45.25t45.25 18.75zM85.334 192h85.334q26.5 0 45.25-18.75t18.75-45.25v-85.334q0-26.5-18.75-45.25t-45.25-18.75h-85.334q-26.5 0-45.25 18.75t-18.75 45.25v85.334q0 26.5 18.75 45.25t45.25 18.75zM170.667 149.333h-85.334q-8.834 0-15.084-6.25t-6.25-15.084v-85.334q0-8.834 6.25-15.084t15.084-6.25h85.334q8.833 0 15.083 6.25t6.25 15.084v85.334q0 8.834-6.25 15.084t-15.084 6.25zM85.334 448h85.334q26.5 0 45.25-18.75t18.75-45.25v-85.333q0-26.5-18.75-45.25t-45.25-18.75h-85.334q-26.5 0-45.25 18.75t-18.75 45.25v85.333q0 26.5 18.75 45.25t45.25 18.75zM170.667 405.333h-85.334q-8.834 0-15.084-6.25t-6.25-15.084v-85.333q0-8.833 6.25-15.083t15.084-6.25h85.334q8.833 0 15.083 6.25t6.25 15.083v85.334q0 8.834-6.25 15.084t-15.084 6.25zM341.334 192h85.334q26.5 0 45.25-18.75t18.75-45.25v-85.334q0-26.5-18.75-45.25t-45.25-18.75h-85.334q-26.5 0-45.25 18.75t-18.75 45.25v85.334q0 26.5 18.75 45.25t45.25 18.75zM426.666 149.333h-85.334q-8.834 0-15.084-6.25t-6.25-15.084v-85.334q0-8.834 6.25-15.084t15.084-6.25h85.334q8.834 0 15.084 6.25t6.25 15.084v85.334q0 8.834-6.25 15.084t-15.084 6.25zM426.666 405.333h-85.334q-8.834 0-15.084-6.25t-6.25-15.084v-85.333q0-8.833 6.25-15.083t15.084-6.25h85.334q8.834 0 15.084 6.25t6.25 15.083v85.334q0 8.834-6.25 15.084t-15.084 6.25z" />
<glyph unicode="&#xe117;" glyph-name="cross" d="M405.334 384q9.166 0 15.25-6.083t6.084-15.25q0-9-6.166-15.167l-134.334-134.166 134.333-134.167q6.166-6.166 6.166-15.166 0-9.166-6.084-15.25t-15.25-6.084q-9 0-15.166 6.166l-134.166 134.334-134.167-134.333q-6.166-6.166-15.166-6.166-9.166 0-15.25 6.084t-6.084 15.25q0 9 6.166 15.166l134.333 134.167-134.333 134.167q-6.166 6.166-6.166 15.166 0 9.167 6.084 15.25t15.25 6.084q9 0 15.166-6.167l134.167-134.333 134.167 134.333q6.166 6.166 15.166 6.166z" />
<glyph unicode="&#xe120;" glyph-name="menu2" d="M64 362.667h384q8.834 0 15.084-6.25t6.25-15.083-6.25-15.084-15.084-6.25h-384q-8.834 0-15.084 6.25t-6.25 15.084 6.25 15.083 15.084 6.25zM64 106.667h384q8.834 0 15.084-6.25t6.25-15.084-6.25-15.084-15.084-6.25h-384q-8.834 0-15.084 6.25t-6.25 15.084 6.25 15.084 15.084 6.25zM64 234.667h384q8.834 0 15.084-6.25t6.25-15.084-6.25-15.084-15.084-6.25h-384q-8.834 0-15.084 6.25t-6.25 15.084 6.25 15.084 15.084 6.25z" />
<glyph unicode="&#xe129;" glyph-name="ellipsis" d="M426.666 277.333q26.5 0 45.25-18.75t18.75-45.25-18.75-45.25-45.25-18.75-45.25 18.75-18.75 45.25 18.75 45.25 45.25 18.75zM85.334 277.333q26.5 0 45.25-18.75t18.75-45.25-18.75-45.25-45.25-18.75-45.25 18.75-18.75 45.25 18.75 45.25 45.25 18.75zM85.334 234.667q-8.834 0-15.084-6.25t-6.25-15.084 6.25-15.084 15.084-6.25 15.084 6.25 6.25 15.084-6.25 15.084-15.084 6.25zM256 277.333q26.5 0 45.25-18.75t18.75-45.25-18.75-45.25-45.25-18.75-45.25 18.75-18.75 45.25 18.75 45.25 45.25 18.75zM256 234.667q-8.834 0-15.084-6.25t-6.25-15.084 6.25-15.084 15.084-6.25 15.084 6.25 6.25 15.084-6.25 15.084-15.084 6.25zM426.666 234.667q-8.834 0-15.084-6.25t-6.25-15.084 6.25-15.084 15.084-6.25 15.084 6.25 6.25 15.084-6.25 15.084-15.084 6.25z" />
<glyph unicode="&#xe600;" glyph-name="rss" d="M0 32c0 35.346 28.654 64 64 64s64-28.654 64-64c0-35.346-28.654-64-64-64s-64 28.654-64 64zM96 480v-64c194.368 0 352-157.616 352-352h64c0 229.728-186.288 416-416 416zM96.368 351.872c-0.128 0-0.24-0.016-0.368-0.016v-64c0.128 0 0.24 0.016 0.368 0.016 123.664 0 223.936-100.24 224-223.872h64c-0.064 158.992-128.992 287.872-288 287.872zM96.368 223.872c-0.128 0-0.24-0.016-0.368-0.016v-64c0.128 0 0.24 0.016 0.368 0.016 52.976 0 95.936-42.928 96-95.872h64c-0.064 88.304-71.68 159.872-160 159.872z" />
<glyph unicode="&#xe601;" glyph-name="plus" d="M512 288h-192v192h-128v-192h-192v-128h192v-192h128v192h192z" />
<glyph unicode="&#xe602;" glyph-name="minus" d="M0 288h512v-128h-512z" />
<glyph unicode="&#xe603;" glyph-name="magnifying-glass" d="M322.128 480c-104.624 0-189.76-85.12-189.76-189.808 0-25.056 5.12-48.816 13.936-70.688l-146.304-146.32 105.12-105.184 146.368 146.432c21.872-8.88 45.632-14 70.624-14 104.688 0 189.872 85.12 189.872 189.728 0.016 104.72-85.168 189.84-189.856 189.84zM322.128 164.368c-69.312 0-125.808 56.496-125.808 125.792 0 69.376 56.496 125.872 125.808 125.872 69.44 0 125.936-56.496 125.936-125.872 0-69.28-56.496-125.792-125.936-125.792z" />
<glyph unicode="&#xe604;" glyph-name="grid" d="M160 480h-96c-35.328 0-64-28.672-64-64v-96c0-35.328 28.672-64 64-64h96c35.328 0 64 28.672 64 64v96c0 35.328-28.672 64-64 64zM160 352c0-17.664-14.304-32-32-32h-32c-17.696 0-32 14.336-32 32v32c0 17.664 14.304 32 32 32h32c17.696 0 32-14.336 32-32v-32zM160 192h-96c-35.328 0-64-28.672-64-64v-96c0-35.328 28.672-64 64-64h96c35.328 0 64 28.672 64 64v96c0 35.328-28.672 64-64 64zM160 64c0-17.696-14.304-32-32-32h-32c-17.696 0-32 14.304-32 32v32c0 17.696 14.304 32 32 32h32c17.696 0 32-14.304 32-32v-32zM448 192h-96c-35.328 0-64-28.672-64-64v-96c0-35.328 28.672-64 64-64h96c35.328 0 64 28.672 64 64v96c0 35.328-28.672 64-64 64zM448 64c0-17.696-14.304-32-32-32h-32c-17.696 0-32 14.304-32 32v32c0 17.696 14.304 32 32 32h32c17.696 0 32-14.304 32-32v-32zM448 480h-96c-35.328 0-64-28.672-64-64v-96c0-35.328 28.672-64 64-64h96c35.328 0 64 28.672 64 64v96c0 35.328-28.672 64-64 64zM448 352c0-17.664-14.304-32-32-32h-32c-17.696 0-32 14.336-32 32v32c0 17.664 14.304 32 32 32h32c17.696 0 32-14.336 32-32v-32z" />
<glyph unicode="&#xe605;" glyph-name="search" d="M500.32 35.424l-92.448 92.448c25.344 36.288 40.32 80.352 40.32 127.968 0 123.712-100.32 224-224 224s-224-100.288-224-224c0-123.712 100.288-224 224-224 47.616 0 91.712 14.976 128 40.32l92.448-92.448c15.36-15.36 40.32-15.36 55.68 0s15.36 40.288 0 55.712zM224.16 95.808c-88.352 0-160 71.616-160 160s71.648 160 160 160c88.384 0 160-71.616 160-160 0.032-88.384-71.584-160-160-160z" />
<glyph unicode="&#xe606;" glyph-name="twitter" d="M384 224h-192v-64c0-35.344 28.656-64 64-64h128c35.344 0 64-28.656 64-64s-28.656-64-64-64h-128c-106.032 0-192 85.968-192 192v256c0 35.344 28.656 64 64 64s64-28.656 64-64v-64h192c35.344 0 64-28.656 64-64s-28.656-64-64-64z" />
<glyph unicode="&#xe607;" glyph-name="plus2" d="M496 288h-176v176c0 8.832-7.152 16-16 16h-96c-8.848 0-16-7.168-16-16v-176h-176c-8.848 0-16-7.168-16-16v-96c0-8.848 7.152-16 16-16h176v-176c0-8.848 7.152-16 16-16h96c8.848 0 16 7.152 16 16v176h176c8.848 0 16 7.152 16 16v96c0 8.832-7.152 16-16 16z" />
<glyph unicode="&#xe608;" glyph-name="minus2" d="M16 288h480c8.848 0 16-7.168 16-16v-96c0-8.848-7.152-16-16-16h-480c-8.832 0-16 7.152-16 16v96c0 8.832 7.168 16 16 16z" />
<glyph unicode="&#xe609;" glyph-name="search2" d="M507.44 16.752c6.096-6.096 6.096-15.984 0-22.096l-22.096-22.096c-6.112-6.096-16-6.096-22.096 0l-154.688 154.688c-1.68 1.68-2.8 3.664-3.552 5.776-31.728-23.184-70.688-37.024-113.008-37.024-106.032 0-192 85.968-192 192s85.968 192 192 192c106.032 0 192-85.968 192-192 0-42.32-13.84-81.28-37.024-113.008 2.112-0.752 4.096-1.856 5.776-3.552l154.688-154.688zM192 416c-70.688 0-128-57.312-128-128s57.312-128 128-128 128 57.312 128 128c0 70.688-57.312 128-128 128z" />
<glyph unicode="&#xe60a;" glyph-name="feed" d="M421.344-32c-0.4 229.616-200.752 417.264-421.344 417.696v94.304c270.656 0 512-230.304 512-512h-90.656zM343.6-31.968h-90.608c0.304 56.384-28.336 119.488-73.664 166.736-45.072 47.632-124.96 77.648-179.104 77.36v94.272c169.040-3.648 339.936-163.312 343.376-338.368zM64.256 96.048c35.312 0 63.936-28.656 63.936-64 0-35.328-28.624-63.984-63.936-63.984s-63.936 28.656-63.936 63.984c0 35.344 28.624 64 63.936 64z" />
<glyph unicode="&#xe60b;" glyph-name="cancel" d="M491.536 371.616l-147.152-148.048 147.152-147.168c6.16-6.144 6.16-16.112 0-22.272l-66.816-66.8c-6.128-6.16-16.096-6.16-22.256 0l-146.912 146.912-146.032-146.912c-6.144-6.16-16.112-6.16-22.272 0l-66.8 66.8c-6.144 6.16-6.144 16.128 0 22.272l146.032 146.912-146.016 146.016c-6.144 6.144-6.144 16.112 0 22.272l66.8 66.8c6.144 6.16 16.112 6.16 22.272 0l145.76-145.76 147.184 148.048c6.16 6.16 16.128 6.16 22.256 0l66.816-66.8c6.128-6.16 6.128-16.128-0.016-22.272z" />
<glyph unicode="&#xe60c;" glyph-name="home" d="M512 184.778l-256 198.713-256-198.714v81.019l256 198.713 256-198.714zM448 192v-192h-128v128h-128v-128h-128v192l192 144z" />
<glyph unicode="&#xe60d;" glyph-name="home2" d="M512 176l-96 96v144h-64v-80l-96 96-256-256v-16h64v-160h160v96h64v-96h160v160h64z" />
<glyph unicode="&#xe60e;" glyph-name="menu" d="M32 384h448v-96h-448zM32 256h448v-96h-448zM32 128h448v-96h-448z" />
<glyph unicode="&#xe60f;" glyph-name="point-right" d="M448 288h-173.904c11.228 40.455 16.904 50.296 16.904 93 0 36.944-30.056 67-67 67-36.943 0-67-30.056-67-67 0-51.986-19.361-75.975-57.545-102.855-1.134-0.798-2.289-1.581-3.455-2.355v44.21h-96v-320h96v28.502c31.831-2.151 40.56-11.096 51.223-22.042 8.226-8.445 18.464-18.956 37.015-26.638 19.477-8.065 44.823-11.822 79.762-11.822h32.49c30.969 0 56.163 25.634 56.163 57.143 0 5.235-0.712 10.438-2.095 15.45 9.855 10.498 15.482 24.501 15.482 39.407 0 5.234-0.712 10.438-2.095 15.449 9.855 10.499 15.482 24.503 15.482 39.408 0 9.018-2.071 17.55-5.744 25.143h74.317c35.347 0 64 28.653 64 64s-28.653 64-64 64zM48 32c-8.836 0-16 7.163-16 16s7.164 16 16 16 16-7.163 16-16-7.164-16-16-16zM445 192h-128v-32h3.266c13.323 0 24.163-11.279 24.163-25.143 0-8.685-4.234-16.645-11.327-21.293l-12.394-8.122 7.149-12.979c2.083-3.781 3.184-8.091 3.184-12.463 0-8.685-4.234-16.644-11.326-21.291l-12.395-8.122 7.149-12.98c2.083-3.781 3.184-8.091 3.184-12.464 0-13.863-10.84-25.143-24.163-25.143h-32.49c-63.281 0-76.044 19.103-89.556 32.975-13.794 14.16-29.245 29.992-75.444 33.364v167.187c7.878 4.132 15.35 8.632 22.329 13.545 48.196 33.929 73.671 69.773 73.671 133.929 0 15.991 15.010 29 31 29s30-13.009 30-29c0-42.83-6.207-52.706-18.48-93-3.062-11.371-5.961-22.635-7.938-31.667l218.418-0.333c17.645 0 32-14.355 32-32s-14.355-32-32-32z" />
<glyph unicode="&#xe610;" glyph-name="point-down" d="M160 32v173.904c-40.455-11.228-50.296-16.904-93-16.904-36.944 0-67 30.056-67 67 0 36.943 30.056 67 67 67 51.986 0 75.975 19.361 102.855 57.545 0.798 1.134 1.581 2.289 2.355 3.455h-44.21v96h320v-96h-28.502c2.151-31.831 11.096-40.56 22.042-51.223 8.445-8.226 18.956-18.464 26.638-37.015 8.065-19.477 11.822-44.823 11.822-79.762v-32.49c0-30.969-25.634-56.163-57.143-56.163-5.235 0-10.438 0.712-15.45 2.095-10.498-9.855-24.501-15.482-39.407-15.482-5.234 0-10.438 0.712-15.449 2.095-10.499-9.855-24.503-15.482-39.408-15.482-9.018 0-17.55 2.071-25.143 5.744v-74.317c0-35.347-28.653-64-64-64s-64 28.653-64 64zM416 432c0 8.836-7.163 16-16 16s-16-7.164-16-16 7.163-16 16-16 16 7.164 16 16zM256 35v128h32v-3.266c0-13.323 11.279-24.163 25.143-24.163 8.685 0 16.645 4.234 21.293 11.327l8.122 12.394 12.979-7.149c3.781-2.083 8.091-3.184 12.463-3.184 8.685 0 16.644 4.234 21.291 11.326l8.122 12.395 12.98-7.149c3.781-2.083 8.091-3.184 12.464-3.184 13.863 0 25.143 10.84 25.143 24.163v32.49c0 63.281-19.103 76.044-32.975 89.556-14.16 13.794-29.992 29.245-33.364 75.444h-167.187c-4.132-7.878-8.632-15.35-13.545-22.329-33.929-48.196-69.773-73.671-133.929-73.671-15.991 0-29-15.010-29-31s13.009-30 29-30c42.83 0 52.706 6.207 93 18.48 11.371 3.062 22.635 5.961 31.667 7.938l0.333-218.418c0-17.645 14.355-32 32-32s32 14.355 32 32z" />
<glyph unicode="&#xe611;" glyph-name="close" d="M507.331 68.67c-0.002 0.002-0.004 0.004-0.006 0.005l-155.322 155.325 155.322 155.325c0.002 0.002 0.004 0.003 0.006 0.005 1.672 1.673 2.881 3.627 3.656 5.708 2.123 5.688 0.912 12.341-3.662 16.915l-73.373 73.373c-4.574 4.573-11.225 5.783-16.914 3.66-2.080-0.775-4.035-1.984-5.709-3.655 0-0.002-0.002-0.003-0.004-0.005l-155.324-155.326-155.324 155.325c-0.002 0.002-0.003 0.003-0.005 0.005-1.673 1.671-3.627 2.88-5.707 3.655-5.69 2.124-12.341 0.913-16.915-3.66l-73.374-73.374c-4.574-4.574-5.784-11.226-3.661-16.914 0.776-2.080 1.985-4.036 3.656-5.708 0.002-0.001 0.003-0.003 0.005-0.005l155.325-155.324-155.325-155.326c-0.001-0.002-0.003-0.003-0.004-0.005-1.671-1.673-2.88-3.627-3.657-5.707-2.124-5.688-0.913-12.341 3.661-16.915l73.374-73.373c4.575-4.574 11.226-5.784 16.915-3.661 2.080 0.776 4.035 1.985 5.708 3.656 0.001 0.002 0.003 0.003 0.005 0.005l155.324 155.325 155.324-155.325c0.002-0.001 0.004-0.003 0.006-0.004 1.674-1.672 3.627-2.881 5.707-3.657 5.689-2.123 12.342-0.913 16.914 3.661l73.373 73.374c4.574 4.574 5.785 11.227 3.662 16.915-0.776 2.080-1.985 4.034-3.657 5.707z" />
<glyph unicode="&#xe612;" glyph-name="minus3" d="M0 272v-96c0-8.836 7.164-16 16-16h480c8.836 0 16 7.164 16 16v96c0 8.836-7.164 16-16 16h-480c-8.836 0-16-7.164-16-16z" />
<glyph unicode="&#xe613;" glyph-name="plus3" d="M496 288h-176v176c0 8.836-7.164 16-16 16h-96c-8.836 0-16-7.164-16-16v-176h-176c-8.836 0-16-7.164-16-16v-96c0-8.836 7.164-16 16-16h176v-176c0-8.836 7.164-16 16-16h96c8.836 0 16 7.164 16 16v176h176c8.836 0 16 7.164 16 16v96c0 8.836-7.164 16-16 16z" />
<glyph unicode="&#xe614;" glyph-name="arrow-right" d="M512 224l-256 256v-160h-255.999l-0.001-192h256v-160z" />
<glyph unicode="&#xe615;" glyph-name="arrow-down" d="M256-32l256 256h-160v255.999l-192 0.001v-256h-160z" />
<glyph unicode="&#xe616;" glyph-name="arrow-right2" d="M310.627 41.373l160 160c12.497 12.496 12.497 32.758 0 45.255l-160 160c-12.497 12.496-32.758 12.496-45.255 0-12.497-12.497-12.497-32.758 0-45.255l105.373-105.373h-306.745c-17.673 0-32-14.327-32-32s14.327-32 32-32h306.745l-105.373-105.373c-6.248-6.248-9.372-14.438-9.372-22.627s3.124-16.379 9.372-22.627c12.497-12.497 32.758-12.497 45.255 0z" />
<glyph unicode="&#xe617;" glyph-name="arrow-down2" d="M73.373 169.373l160-160c12.496-12.497 32.758-12.497 45.255 0l160 160c12.496 12.497 12.496 32.758 0 45.255-12.497 12.497-32.758 12.497-45.255 0l-105.373-105.373v306.745c0 17.673-14.327 32-32 32s-32-14.327-32-32v-306.745l-105.373 105.373c-6.248 6.248-14.438 9.372-22.627 9.372s-16.379-3.124-22.627-9.372c-12.497-12.497-12.497-32.758 0-45.255z" />
<glyph unicode="&#xe618;" glyph-name="arrow-right3" d="M256 480c-141.385 0-256-114.615-256-256s114.615-256 256-256 256 114.615 256 256-114.615 256-256 256zM256 16c-114.875 0-208 93.125-208 208s93.125 208 208 208 208-93.125 208-208-93.125-208-208-208zM406.628 246.627l-128.001 128c-12.496 12.497-32.757 12.497-45.254 0s-12.497-32.758 0-45.255l73.372-73.372h-178.745c-17.673 0-32-14.327-32-32s14.327-32 32-32h178.745l-73.373-73.372c-12.497-12.497-12.497-32.759 0-45.256 6.249-6.248 14.439-9.372 22.628-9.372s16.379 3.124 22.627 9.372l128.001 128c12.496 12.497 12.496 32.759 0 45.255z" />
<glyph unicode="&#xe619;" glyph-name="arrow-down3" d="M512 224c0 141.385-114.615 256-256 256s-256-114.615-256-256 114.615-256 256-256 256 114.615 256 256zM48 224c0 114.875 93.125 208 208 208s208-93.125 208-208-93.125-208-208-208-208 93.125-208 208zM278.627 73.372l128 128.001c12.497 12.496 12.497 32.757 0 45.254s-32.758 12.497-45.255 0l-73.372-73.372v178.745c0 17.673-14.327 32-32 32s-32-14.327-32-32v-178.745l-73.372 73.373c-12.497 12.497-32.759 12.497-45.256 0-6.248-6.249-9.372-14.439-9.372-22.628s3.124-16.379 9.372-22.627l128-128.001c12.497-12.496 32.759-12.496 45.255 0z" />
<glyph unicode="&#xe61a;" glyph-name="paragraph-justify" d="M0 320h512v-32h-512zM0 192h512v-32h-512zM0 64h512v-32h-512zM0 384h512v-32h-512zM0 256h512v-32h-512zM0 128h512v-32h-512z" />
<glyph unicode="&#xe61b;" glyph-name="paragraph-justify2" d="M0 448h512v-64h-512zM0 352h512v-64h-512zM0 256h512v-64h-512zM0 160h512v-64h-512zM0 64h512v-64h-512z" />
<glyph unicode="&#xe61c;" glyph-name="mail2" d="M426.671 480h-341.328c-46.937 0-85.343-38.405-85.343-85.345v-341.311c0-46.969 38.406-85.344 85.343-85.344h341.328c46.938 0 85.329 38.375 85.329 85.345v341.31c0 46.94-38.391 85.345-85.329 85.345zM426.671 416c3.994 0 7.773-1.167 11.010-3.171l-181.681-150.202-181.677 150.2c3.239 2.005 7.022 3.173 11.020 3.173h341.328zM85.343 32c-0.962 0-1.91 0.073-2.842 0.204l112.813 156.483-14.628 14.627-116.686-116.685v305.569l192-232.198 192 232.197v-305.568l-116.686 116.685-14.627-14.627 112.814-156.484c-0.929-0.13-1.873-0.203-2.831-0.203h-341.327z" />
<glyph unicode="&#xe61d;" glyph-name="google" d="M394.767 448c0 0-100.478 0-133.97 0-60.061 0-116.585-45.503-116.585-98.211 0-53.863 40.941-97.333 102.044-97.333 4.249 0 8.378 0.085 12.42 0.376-3.964-7.593-6.8-16.144-6.8-25.021 0-14.969 8.052-27.105 18.234-37.012-7.693 0-15.121-0.224-23.226-0.224-74.391 0.001-131.65-47.38-131.65-96.511 0-48.389 62.771-78.656 137.167-78.656 84.812 0 131.653 48.122 131.653 96.514 0 38.801-11.448 62.036-46.843 87.067-12.108 8.571-35.266 29.418-35.266 41.672 0 14.36 4.098 21.434 25.714 38.323 22.156 17.312 37.837 41.651 37.837 69.958 0 33.703-15.011 66.549-43.187 77.386h42.478l29.98 21.672zM347.974 120.271c1.063-4.486 1.642-9.104 1.642-13.814 0-39.1-25.195-69.655-97.487-69.655-51.421 0-88.558 32.552-88.558 71.65 0 38.321 46.063 70.222 97.482 69.666 12-0.127 23.184-2.058 33.334-5.345 27.914-19.414 47.938-30.38 53.587-52.502zM265.643 266.112c-34.519 1.032-67.318 38.613-73.276 83.93-5.958 45.333 17.185 80.021 51.694 78.995 34.504-1.037 67.318-37.407 73.279-82.729 5.953-45.33-17.195-81.229-51.697-80.196z" />
<glyph unicode="&#xe61e;" glyph-name="googleplus" d="M279.533 448c0 0-100.478 0-133.97 0-60.060 0-116.585-45.503-116.585-98.211 0-53.863 40.941-97.333 102.044-97.333 4.249 0 8.378 0.085 12.421 0.376-3.965-7.593-6.801-16.144-6.801-25.021 0-14.969 8.052-27.105 18.234-37.012-7.693 0-15.121-0.224-23.226-0.224-74.391 0.001-131.65-47.379-131.65-96.51 0-48.389 62.771-78.657 137.167-78.657 84.812 0 131.653 48.122 131.653 96.514 0 38.8-11.448 62.036-46.843 87.067-12.108 8.572-35.265 29.418-35.265 41.672 0 14.36 4.098 21.434 25.714 38.323 22.156 17.312 37.836 41.651 37.836 69.958 0 33.703-15.010 66.549-43.186 77.386h42.477l29.98 21.672zM232.74 120.271c1.063-4.486 1.642-9.103 1.642-13.814 0-39.1-25.196-69.655-97.487-69.655-51.421 0-88.558 32.552-88.558 71.65 0 38.321 46.063 70.222 97.482 69.666 12-0.127 23.184-2.058 33.335-5.345 27.913-19.413 47.938-30.381 53.586-52.502zM150.409 266.112c-34.519 1.032-67.318 38.613-73.276 83.93-5.958 45.333 17.185 80.021 51.694 78.995 34.505-1.037 67.319-37.407 73.279-82.729 5.953-45.33-17.195-81.229-51.697-80.196zM416 352v96h-32v-96h-96v-32h96v-96h32v96h96v32z" />
<glyph unicode="&#xe61f;" glyph-name="googleplus2" d="M426.756 480h-342.135c-47.050 0-84.621-38.893-84.621-85.939v-340.176c0-48.211 37.571-85.885 84.621-85.885h342.134c47.048 0 85.245 37.674 85.245 85.885v340.176c0 47.046-38.197 85.939-85.244 85.939zM352 464v-80h-80v80h80zM240 464v-80h-80v80h80zM16 384v10.061c0 38.564 30.783 69.939 68.621 69.939h43.379v-80h-112zM384 160h-96v-96h-64v96h-96v64h96v96h64v-96h96v-64zM496 384h-112v80h42.756c38.182 0 69.244-31.375 69.244-69.939v-10.061z" />
<glyph unicode="&#xe620;" glyph-name="googleplus3" d="M0.403 45.168c-0.122 1.266-0.226 2.535-0.292 3.815 0.065-1.28 0.17-2.549 0.292-3.815zM117.954 197.426c46.005-1.369 76.867 46.349 68.931 106.599-7.947 60.24-51.698 108.584-97.704 109.961-46.013 1.365-76.87-44.741-68.926-105 7.941-60.234 51.676-110.187 97.699-111.56zM512 352v42.655c0 46.94-38.391 85.345-85.329 85.345h-341.328c-46.138 0-84.006-37.116-85.282-82.963 29.181 25.693 69.662 47.158 111.437 47.158 44.652 0 178.622 0 178.622 0l-39.974-33.809h-56.634c37.565-14.402 57.578-58.062 57.578-102.861 0-37.624-20.905-69.977-50.444-92.984-28.822-22.451-34.286-31.854-34.286-50.939 0-16.289 30.873-44 47.016-55.394 47.191-33.269 62.458-64.156 62.458-115.728 0-8.214-1.021-16.415-3.033-24.48h153.871c46.937 0 85.328 38.375 85.328 85.345v266.654h-96v-95.999h-32v96h-95.999v32h95.999v96h32v-96h96zM92.943 97.032c10.807 0 20.711 0.295 30.968 0.295-13.573 13.167-24.313 29.3-24.313 49.19 0 11.804 3.782 23.168 9.067 33.26-5.391-0.385-10.895-0.497-16.563-0.497-37.178 0-68.753 12.038-92.102 31.927v-33.621l0.003-100.865c26.72 12.687 58.444 20.311 92.94 20.311zM1.71 36.371c-0.556 2.729-0.983 5.503-1.271 8.317 0.287-2.814 0.715-5.588 1.271-8.317zM227.725 3.577c-7.529 29.403-34.227 43.982-71.444 69.784-13.536 4.366-28.447 6.937-44.447 7.104-44.809 0.482-86.554-17.471-110.108-44.186 7.96-38.853 42.517-68.279 83.617-68.279h143.222c0.908 5.564 1.348 11.316 1.348 17.216 0 6.267-0.767 12.396-2.188 18.361z" />
<glyph unicode="&#xe621;" glyph-name="googleplus4" d="M218.503 70.919c0-37.534-23.195-67.196-88.879-69.588-38.492 21.893-70.745 53.476-93.454 91.433 11.845 29.248 48.846 51.523 91.158 51.057 12.011-0.126 23.205-2.057 33.372-5.35 27.954-19.433 50.5-31.576 56.162-53.724 1.057-4.482 1.641-9.103 1.641-13.828zM256 480c-73.97 0-140.598-31.385-187.333-81.549 18.467 10.226 40.269 16.319 63.451 16.319 33.534 0 128.219 0 128.219 0l-28.652-30.070h-33.655c23.748-13.606 36.376-41.624 36.376-72.506 0-28.346-15.708-51.19-37.89-68.529-21.64-16.901-25.746-23.983-25.746-38.367 0-12.271 25.861-30.549 37.75-39.468 41.409-31.056 49.789-50.592 49.789-89.435 0-39.363-34.468-78.552-92.933-91.871 28.174-10.669 58.713-16.524 90.624-16.524 141.385 0 256 114.615 256 256s-114.615 256-256 256zM384 288v-64h-32v64h-64v32h64v64h32v-64h64v-32h-64zM182.884 310.264c5.961-45.388-13.923-74.595-48.467-73.567-34.563 1.041-67.403 32.746-73.37 78.121-5.964 45.394 17.209 80.127 51.765 79.098 34.545-1.037 64.11-38.271 70.072-83.652zM110.443 158.966c-37.34 0-69.064-12.884-91.421-31.932-12.251 29.91-19.022 62.645-19.022 96.966 0 28.383 4.628 55.684 13.156 81.198 3.687-49.721 38.676-88.096 96.485-88.096 4.257 0 8.382 0.221 12.437 0.511-3.975-7.615-6.811-16.095-6.811-24.991 0-14.985 8.244-23.535 18.434-33.447-7.701 0-15.135-0.209-23.258-0.209z" />
<glyph unicode="&#xe622;" glyph-name="facebook" d="M287.935-32h-95.935v256h-64v88.225l64 0.029-0.104 51.976c0 71.976 19.517 115.77 104.299 115.77h70.588v-88.242h-44.115c-33.016 0-34.603-12.328-34.603-35.342l-0.131-44.162h79.345l-9.352-88.225-69.927-0.029-0.065-256z" />
<glyph unicode="&#xe623;" glyph-name="facebook2" d="M426.672 480h-341.33c-46.936 0-85.342-38.407-85.342-85.344v-341.313c0-46.969 38.406-85.343 85.342-85.343l341.33 0.001c46.938 0 85.328 38.373 85.328 85.344v341.311c0 46.937-38.391 85.344-85.328 85.344zM435.296 224h-83.296v-224h-96v224h-46.263v73.282h46.263v47.593c0 64.671 27.896 103.125 103.935 103.125h87.622v-79.285h-71.565c-21.241 0.035-23.876-11.076-23.876-31.756l-0.116-39.677h96l-12.704-73.282z" />
<glyph unicode="&#xe624;" glyph-name="facebook3" d="M256 480c141.385 0 256-114.615 256-256 0-130.547-97.719-238.265-224-254.013v190.013h88l8 64h-96v32c0 17.673 14.327 32 32 32h64v64h-64c-53.020 0-96-42.98-96-96v-32h-48v-64h48v-190.013c-126.281 15.748-224 123.466-224 254.013 0 141.385 114.615 256 256 256z" />
<glyph unicode="&#xe625;" glyph-name="twitter2" d="M512 382.791c-18.838-8.354-39.082-14.001-60.33-16.54 21.686 13 38.343 33.585 46.186 58.115-20.298-12.039-42.778-20.78-66.705-25.49-19.16 20.415-46.461 33.17-76.673 33.17-58.011 0-105.044-47.029-105.044-105.039 0-8.233 0.929-16.25 2.72-23.939-87.3 4.382-164.701 46.2-216.509 109.753-9.042-15.514-14.223-33.558-14.223-52.809 0-36.444 18.544-68.596 46.73-87.433-17.219 0.546-33.416 5.271-47.577 13.139-0.010-0.438-0.010-0.878-0.010-1.321 0-50.894 36.209-93.348 84.261-103-8.813-2.4-18.094-3.686-27.674-3.686-6.769 0-13.349 0.66-19.764 1.886 13.368-41.73 52.16-72.103 98.126-72.948-35.95-28.175-81.243-44.967-130.458-44.967-8.479 0-16.84 0.497-25.058 1.47 46.486-29.805 101.701-47.197 161.021-47.197 193.211 0 298.868 160.062 298.868 298.872 0 4.554-0.103 9.084-0.305 13.59 20.528 14.81 38.336 33.31 52.418 54.374z" />
<glyph unicode="&#xe626;" glyph-name="twitter3" d="M426.671 480h-341.328c-46.937 0-85.343-38.405-85.343-85.345v-341.311c0-46.969 38.406-85.344 85.343-85.344h341.328c46.938 0 85.329 38.375 85.329 85.345v341.31c0 46.94-38.391 85.345-85.329 85.345zM419.026 309.083c0.164-3.671 0.245-7.364 0.245-11.074 0-113.107-84.608-243.534-239.329-243.534-47.502 0-91.717 14.174-128.943 38.459 6.58-0.794 13.276-1.197 20.065-1.197 39.411 0 75.679 13.685 104.467 36.641-36.808 0.69-67.872 25.438-78.577 59.441 5.137-1 10.406-1.537 15.826-1.537 7.672 0 15.103 1.048 22.16 3.004-38.48 7.866-67.475 42.458-67.475 83.928 0 0.361 0 0.719 0.008 1.076 11.34-6.41 24.312-10.26 38.1-10.705-22.571 15.349-37.421 41.546-37.421 71.244 0 15.685 4.147 30.389 11.389 43.029 41.487-51.785 103.468-85.86 173.377-89.431-1.435 6.266-2.179 12.798-2.179 19.507 0 47.269 37.663 85.59 84.115 85.59 24.195 0 46.059-10.393 61.401-27.029 19.16 3.838 37.162 10.96 53.416 20.771-6.281-19.988-19.617-36.761-36.983-47.355 17.013 2.069 33.226 6.67 48.31 13.477-11.273-17.162-25.535-32.238-41.972-44.305z" />
<glyph unicode="&#xe627;" glyph-name="twitter4" d="M256 480c-141.385 0-256-114.615-256-256s114.615-256 256-256 256 114.615 256 256-114.615 256-256 256zM403.121 299.456c0.146-3.254 0.221-6.528 0.221-9.819 0-100.311-76.354-215.982-215.979-215.982-42.868 0-82.768 12.568-116.363 34.107 5.938-0.704 11.981-1.063 18.108-1.063 35.565 0 68.295 12.138 94.275 32.497-33.217 0.61-61.25 22.561-70.912 52.716 4.637-0.884 9.392-1.361 14.283-1.361 6.923 0 13.629 0.928 19.999 2.662-34.726 6.976-60.893 37.656-60.893 74.434 0 0.32 0 0.639 0.008 0.955 10.235-5.685 21.939-9.1 34.382-9.494-20.37 13.611-33.77 36.846-33.77 63.184 0 13.911 3.744 26.952 10.278 38.162 37.439-45.927 93.374-76.146 156.462-79.314-1.294 5.559-1.965 11.351-1.965 17.302 0 41.92 33.99 75.906 75.909 75.906 21.833 0 41.562-9.218 55.409-23.97 17.29 3.404 33.537 9.721 48.206 18.42-5.668-17.727-17.705-32.603-33.376-41.997 15.355 1.834 29.984 5.916 43.597 11.952-10.175-15.224-23.045-28.593-37.879-39.297z" />
<glyph unicode="&#xe628;" glyph-name="feed2" d="M68.147 104.535c-37.598 0-68.146-30.667-68.146-68.038 0-37.577 30.55-67.901 68.146-67.901 37.733 0 68.247 30.324 68.247 67.901-0.001 37.371-30.512 68.038-68.247 68.038zM0.078 306.035v-98.129c63.892 0 123.979-24.986 169.229-70.256 45.192-45.159 70.141-105.518 70.141-169.65h98.561c-0.001 186.41-151.641 338.035-337.931 338.035zM0.194 480v-98.178c227.891 0 413.378-185.667 413.378-413.822h98.428c0 282.235-229.627 512-511.806 512z" />
<glyph unicode="&#xe629;" glyph-name="feed3" d="M426.67 480h-341.327c-46.938 0-85.343-38.406-85.343-85.344v-341.314c0-46.967 38.406-85.342 85.344-85.342h341.326c46.938 0 85.33 38.374 85.33 85.342v341.314c0 46.938-38.392 85.344-85.33 85.344zM139.472 64.376c-23.985 0-43.472 19.346-43.472 43.314 0 23.842 19.486 43.406 43.472 43.406 24.079 0 43.53-19.564 43.53-43.406-0.001-23.968-19.452-43.314-43.53-43.314zM248.734 64.002c0 40.905-15.904 79.409-44.73 108.222-28.857 28.875-67.188 44.813-107.952 44.813v62.593c118.826 0 215.563-96.721 215.563-215.627l-62.881-0.001zM359.814 64.002c0 145.531-118.329 263.97-263.688 263.97v62.624c180.001 0 326.473-146.562 326.473-326.596l-62.785 0.002z" />
<glyph unicode="&#xe62a;" glyph-name="feed4" d="M256 480c-141.385 0-256-114.615-256-256s114.615-256 256-256 256 114.615 256 256-114.615 256-256 256zM160 96c-17.673 0-32 14.327-32 32s14.327 32 32 32 32-14.327 32-32-14.327-32-32-32zM248 96c0 66.168-53.832 120-120 120v48c92.636 0 168-75.364 168-168h-48zM344 96c0 57.695-22.468 111.938-63.265 152.735s-95.039 63.265-152.735 63.265v48c70.517 0 136.813-27.461 186.677-77.324 49.862-49.863 77.323-116.159 77.323-186.676h-48z" />
<glyph unicode="&#xe62b;" glyph-name="vimeo" d="M0 325.815l20.797-27.272c0 0 42.885 33.804 57.18 16.901 14.294-16.901 68.868-220.978 87.085-258.623 15.9-33.015 59.759-76.66 107.857-45.491 48.068 31.17 207.92 167.643 236.533 328.808 28.59 161.113-192.36 127.363-215.765-13.005 58.495 35.118 89.718-14.269 59.785-70.186-29.879-55.862-57.18-92.296-71.476-92.296-14.269 0-25.245 37.384-41.594 102.723-16.899 67.551-16.796 189.23-87.058 175.435-66.259-13.006-153.344-116.994-153.344-116.994z" />
<glyph unicode="&#xe62c;" glyph-name="vimeo2" d="M426.655 480h-341.31c-46.939 0-85.345-38.408-85.345-85.346v-341.31c0-46.969 38.406-85.344 85.345-85.344h341.31c46.939 0 85.345 38.375 85.345 85.345v341.309c0 46.938-38.406 85.346-85.345 85.346zM406.434 260.937c-16.979-95.648-111.854-176.648-140.39-195.155-28.544-18.503-54.577 7.411-64.019 26.997-10.808 22.354-43.205 143.47-51.684 153.51-8.482 10.019-33.938-10.040-33.938-10.040l-12.346 16.188c0 0 51.691 61.724 91.020 69.439 41.702 8.183 41.64-64.033 51.67-104.121 9.7-38.782 16.22-60.976 24.688-60.976 8.485 0 24.691 21.631 42.426 54.785 17.768 33.188-0.769 62.505-35.486 41.646 13.893 83.326 145.031 103.36 128.059 7.727z" />
<glyph unicode="&#xe62d;" glyph-name="vimeo3" d="M256 480c-141.385 0-256-114.615-256-256s114.615-256 256-256 256 114.615 256 256-114.615 256-256 256zM406.434 260.937c-16.979-95.648-111.854-176.648-140.39-195.155-28.544-18.503-54.577 7.411-64.019 26.997-10.808 22.354-43.205 143.47-51.684 153.51-8.482 10.019-33.938-10.040-33.938-10.040l-12.346 16.188c0 0 51.691 61.724 91.020 69.439 41.702 8.183 41.64-64.033 51.67-104.121 9.7-38.782 16.22-60.976 24.688-60.976 8.485 0 24.691 21.631 42.426 54.785 17.768 33.188-0.769 62.505-35.486 41.646 13.893 83.326 145.031 103.36 128.059 7.727z" />
<glyph unicode="&#xe62e;" glyph-name="flickr" d="M0 208c0 61.856 50.144 112 112 112s112-50.144 112-112c0-61.856-50.144-112-112-112s-112 50.144-112 112zM288 208c0 61.856 50.144 112 112 112s112-50.144 112-112c0-61.856-50.144-112-112-112s-112 50.144-112 112z" />
<glyph unicode="&#xe62f;" glyph-name="flickr2" d="M400 272c-35.29 0-64-28.71-64-64s28.71-64 64-64c35.29 0 64 28.71 64 64s-28.71 64-64 64zM400 320v0c61.855 0 112-50.144 112-112s-50.145-112-112-112c-61.855 0-112 50.145-112 112s50.145 112 112 112zM0 208c0 61.856 50.144 112 112 112s112-50.144 112-112c0-61.856-50.144-112-112-112s-112 50.144-112 112z" />
<glyph unicode="&#xe630;" glyph-name="flickr3" d="M426.688 480h-341.344c-46.938 0-85.344-38.406-85.344-85.341v-341.313c0-46.971 38.406-85.346 85.344-85.346h341.341c46.937 0 85.315 38.377 85.315 85.348v341.311c0 46.935-38.378 85.341-85.312 85.341zM144 144c-44.183 0-80 35.817-80 80s35.817 80 80 80 80-35.817 80-80c0-44.183-35.817-80-80-80zM368 144c-44.184 0-80 35.817-80 80s35.816 80 80 80 80-35.817 80-80c0-44.183-35.816-80-80-80z" />
<glyph unicode="&#xe631;" glyph-name="flickr4" d="M256 480c-141.385 0-256-115.398-256-257.75s114.615-257.75 256-257.75 256 115.398 256 257.75-114.615 257.75-256 257.75zM144 144c-44.183 0-80 35.817-80 80s35.817 80 80 80 80-35.817 80-80c0-44.183-35.817-80-80-80zM368 144c-44.184 0-80 35.817-80 80s35.816 80 80 80 80-35.817 80-80c0-44.183-35.816-80-80-80z" />
<glyph unicode="&#xe632;" glyph-name="deviantart" d="M280.928 276.5c-19.521 1.141-42.041-0.024-68.125-4.475l60.167-108.444 239.030 65.633c-2.577 6.13-6.343 12.113-11.331 17.899-24.737 28.639-78.37 54.187-136.802 65.709l0.001 0.013c-57.322 13.437-119.401 12.872-182.98 3.274-2.292-0.344-4.572-0.711-6.84-1.092l-21.136 39.146c-20.571-2.746-39.904-7.025-57.803-12.737l20.13-42.099c-32.88-12.738-59.861-30.88-79.329-52.716-32.106-36.532-44.795-82.454-29.373-127.176 3.102-9.021 7.294-17.58 12.468-25.598l239.034 65.649-66.375 122.924c2.279 0.44 4.598 0.884 6.964 1.312 107.341 19.149 166.051-10.432 198.208-41.915l-81.779-19.824-34.129 54.517zM87.361 166.805c-7.379 33.676-1.506 71.263 45.202 96.297l36.569-76.474-81.771-19.823z" />
<glyph unicode="&#xe633;" glyph-name="deviantart2" d="M426 480h-340c-47.3 0-86-38.7-86-86v-340c0-47.3 38.7-86 86-86h340c47.3 0 86 38.7 86 86v340c0 47.3-38.7 86-86 86zM480 96h-192v118c0 0 35.167-0.5 54-20v-34h77.205c-5.91 18.941-18.534 37.556-36.564 53.332-30.99 27.115-81.597 40.668-126.641 40.668v-158h-224v48c0 21.698 7.325 43.269 21.182 62.38 12.297 16.959 29.432 31.916 50.93 44.457 25.216 14.709 55.281 25.354 87.888 31.389v69.774h64v-64c73.5 0 110.806-13.198 151.889-37.163 21.498-12.541 38.633-27.498 50.93-44.457 13.857-19.111 21.181-40.682 21.181-62.38v-48zM99.795 160c5.91 18.941 18.535 37.556 36.564 53.332 15.77 13.798 34.81 24.594 55.641 31.878v-85.21h-92.205z" />
<glyph unicode="&#xe634;" glyph-name="github" d="M0 201.795c0-23.199 2.17-44.19 6.511-62.967 4.339-18.777 10.348-35.092 18.026-48.946s17.442-26.039 29.293-36.554c11.85-10.516 24.703-19.112 38.556-25.788s29.668-12.099 47.444-16.273c17.776-4.173 35.928-7.094 54.455-8.764 18.527-1.669 38.89-2.503 61.089-2.503 22.366 0 42.814 0.834 61.34 2.503 18.527 1.67 36.721 4.592 54.58 8.764s33.756 9.596 47.694 16.273c13.938 6.677 26.873 15.272 38.808 25.788 11.935 10.515 21.783 22.702 29.543 36.554s13.811 30.168 18.151 48.946c4.34 18.778 6.51 39.768 6.51 62.967 0 41.394-13.854 77.197-41.559 107.408 1.502 4.006 2.879 8.554 4.131 13.645s2.42 12.351 3.505 21.782c1.085 9.431 0.668 20.321-1.252 32.673-1.919 12.352-5.466 24.953-10.642 37.806l-3.755 0.751c-2.671 0.5-7.053 0.375-13.145-0.376s-13.186-2.253-21.281-4.507c-8.095-2.253-18.527-6.593-31.296-13.019s-26.247-14.479-40.435-24.16c-24.368 6.676-57.834 10.015-100.396 10.015-42.396 0-75.778-3.339-100.147-10.015-14.188 9.681-27.75 17.734-40.685 24.16s-23.242 10.766-30.92 13.019c-7.677 2.254-14.855 3.714-21.531 4.382-6.677 0.668-10.892 0.876-12.644 0.626s-3.13-0.543-4.131-0.876c-5.174-12.853-8.721-25.453-10.64-37.806-1.919-12.352-2.337-23.243-1.252-32.673s2.254-16.691 3.505-21.782c1.252-5.091 2.629-9.639 4.131-13.645-27.707-30.211-41.561-66.013-41.561-107.408zM62.842 138.953c0 24.035 10.933 46.068 32.798 66.097 6.509 6.010 14.104 10.557 22.783 13.646s18.485 4.84 29.418 5.258c10.933 0.417 21.406 0.334 31.421-0.251s22.366-1.377 37.054-2.378c14.688-1.002 27.374-1.502 38.056-1.502s23.368 0.5 38.056 1.502c14.689 1.001 27.039 1.794 37.055 2.378 10.015 0.585 20.487 0.668 31.421 0.251s20.738-2.17 29.419-5.258c8.678-3.088 16.272-7.635 22.782-13.646 21.865-19.697 32.799-41.728 32.799-66.097 0-14.356-1.795-27.081-5.384-38.182s-8.179-20.405-13.771-27.915c-5.592-7.51-13.352-13.895-23.284-19.153-9.931-5.258-19.611-9.305-29.042-12.144-9.431-2.837-21.533-5.049-36.304-6.635-14.773-1.586-27.958-2.546-39.559-2.879s-26.33-0.501-44.189-0.501c-17.859 0-32.589 0.167-44.189 0.501s-24.787 1.293-39.558 2.879c-14.771 1.586-26.872 3.798-36.303 6.635-9.43 2.839-19.111 6.887-29.042 12.144s-17.693 11.641-23.284 19.153c-5.591 7.511-10.182 16.815-13.77 27.915-3.589 11.101-5.383 23.828-5.383 38.182zM320 144c0 26.51 14.327 48 32 48s32-21.49 32-48c0-26.51-14.327-48-32-48s-32 21.49-32 48zM128 144c0 26.51 14.327 48 32 48s32-21.49 32-48c0-26.51-14.327-48-32-48s-32 21.49-32 48z" />
<glyph unicode="&#xe635;" glyph-name="github2" d="M256 64.054c-9.577 0-19.154 4.958-29.071 14.875-3.905 3.905-3.905 10.237 0 14.143 3.905 3.904 10.237 3.904 14.143 0 6.103-6.105 10.986-9.072 14.928-9.072 3.941 0 8.825 2.967 14.929 9.071 3.906 3.904 10.236 3.904 14.143 0 3.905-3.905 3.905-10.237 0-14.143-9.918-9.916-19.495-14.874-29.072-14.874zM0 217.254c0-24.946 2.133-47.561 6.4-67.841s10.267-37.87 18-52.766c7.733-14.896 17.511-27.952 29.333-39.17s24.666-20.46 38.533-27.729c13.867-7.268 29.733-13.148 47.6-17.633 17.866-4.487 36.044-7.628 54.533-9.423s38.845-2.692 61.067-2.692c22.222 0 42.621 0.895 61.199 2.69s36.801 4.936 54.666 9.423c17.867 4.487 33.779 10.365 47.734 17.633 13.955 7.269 26.889 16.513 38.799 27.729 11.912 11.218 21.735 24.274 29.467 39.17 7.735 14.897 13.78 32.487 18.135 52.766 4.355 20.28 6.533 42.894 6.533 67.84 0 44.69-13.868 83.186-41.6 115.491 1.6 4.308 2.977 9.243 4.133 14.807 1.154 5.564 2.266 13.416 3.332 23.556 1.069 10.141 0.668 21.852-1.199 35.132-1.867 13.282-5.377 26.832-10.533 40.651l-4 0.809c-2.666 0.538-7.021 0.359-13.066-0.54-6.043-0.897-13.111-2.511-21.199-4.845-8.088-2.332-18.533-6.954-31.334-13.864-12.799-6.909-26.31-15.659-40.533-26.248-24.178 7.359-57.51 15.058-100 15.058-42.488 0-75.911-7.698-100.265-15.057-14.223 10.59-27.778 19.294-40.667 26.114-12.89 6.821-23.201 11.487-30.934 13.999s-14.889 4.128-21.467 4.845c-6.578 0.718-10.801 0.943-12.667 0.673s-3.244-0.583-4.133-0.942c-5.157-13.82-8.712-27.37-10.668-40.652-1.955-13.28-2.4-24.946-1.333-34.996 1.067-10.051 2.222-17.949 3.467-23.691s2.667-10.679 4.267-14.807c-27.733-32.125-41.6-70.621-41.6-115.49zM68.268 160.298c0 29.011 10.666 55.319 32 78.928 6.4 7.203 13.823 12.656 22.267 16.356 8.445 3.701 18.044 5.803 28.8 6.303s21.022 0.4 30.8-0.3c9.778-0.701 21.867-1.651 36.267-2.851 14.399-1.202 26.844-1.801 37.333-1.801 10.488 0 22.934 0.6 37.332 1.801 14.403 1.2 26.491 2.15 36.268 2.851 9.78 0.7 20.045 0.8 30.801 0.3s20.401-2.602 28.934-6.303c8.533-3.7 16-9.153 22.4-16.356 21.332-23.609 32-49.917 32-78.928 0-17.006-1.777-32.162-5.334-45.467-3.555-13.306-8.045-24.458-13.467-33.461s-13.024-16.609-22.799-22.81c-9.779-6.203-19.246-11.005-28.4-14.405-9.156-3.4-20.979-6.052-35.467-7.953-14.491-1.898-27.467-3.051-38.936-3.45-11.467-0.4-25.91-0.6-43.332-0.6s-31.822 0.201-43.2 0.6c-11.378 0.399-24.311 1.552-38.8 3.45-14.489 1.901-26.311 4.552-35.467 7.953s-18.622 8.202-28.4 14.405c-9.778 6.202-17.378 13.806-22.8 22.81-5.423 9.003-9.912 20.155-13.467 33.461-3.555 13.305-5.333 28.461-5.333 45.467zM128 175.998c0 26.51 14.327 48 32 48s32-21.49 32-48c0-26.51-14.327-48-32-48s-32 21.49-32 48zM320 175.998c0 26.51 14.327 48 32 48s32-21.49 32-48c0-26.51-14.327-48-32-48s-32 21.49-32 48z" />
<glyph unicode="&#xe636;" glyph-name="github3" d="M256 480c-141.385 0-256-114.615-256-256s114.615-256 256-256 256 114.615 256 256-114.615 256-256 256zM408.028 71.972c-19.759-19.758-42.756-35.266-68.354-46.093-6.503-2.75-13.107-5.164-19.8-7.246v38.367c0 20.167-6.917 35-20.75 44.5 8.667 0.833 16.625 2 23.875 3.5s14.917 3.667 23 6.5 15.333 6.208 21.75 10.125 12.583 9 18.5 15.25 10.875 13.333 14.875 21.25 7.167 17.417 9.5 28.5 3.5 23.292 3.5 36.625c0 25.833-8.417 47.833-25.25 66 7.667 20 6.833 41.75-2.5 65.25l-6.25 0.75c-4.333 0.5-12.125-1.333-23.375-5.5s-23.875-11-37.875-20.5c-19.833 5.5-40.417 8.25-61.75 8.25-21.5 0-42-2.75-61.5-8.25-8.833 6-17.208 10.958-25.125 14.875s-14.25 6.583-19 8-9.167 2.292-13.25 2.625-6.708 0.417-7.875 0.25-2-0.333-2.5-0.5c-9.333-23.667-10.167-45.417-2.5-65.25-16.833-18.167-25.25-40.167-25.25-66 0-13.333 1.167-25.542 3.5-36.625s5.5-20.583 9.5-28.5 8.958-15 14.875-21.25 12.083-11.333 18.5-15.25 13.667-7.292 21.75-10.125 15.75-5 23-6.5 15.208-2.667 23.875-3.5c-13.667-9.333-20.5-24.167-20.5-44.5v-39.115c-7.549 2.247-14.99 4.902-22.3 7.994-25.597 10.827-48.594 26.335-68.353 46.093-19.758 19.759-35.267 42.756-46.093 68.354-11.199 26.479-16.878 54.631-16.878 83.674s5.679 57.195 16.879 83.675c10.827 25.597 26.335 48.594 46.093 68.353s42.756 35.267 68.353 46.093c26.48 11.2 54.632 16.879 83.675 16.879s57.195-5.679 83.675-16.879c25.598-10.827 48.595-26.335 68.354-46.093 19.758-19.758 35.266-42.756 46.093-68.353 11.199-26.48 16.878-54.632 16.878-83.675s-5.679-57.195-16.879-83.675c-10.827-25.597-26.335-48.595-46.093-68.353z" />
<glyph unicode="&#xe637;" glyph-name="github4" d="M117.639 355.64c-25.396 0-47.242-8.403-65.542-25.208-19.043-17.926-28.57-40.33-28.57-67.218 0-17.926 5.188-34.731 15.647-50.416 9.337-14.563 19.090-23.903 31.889-28.012v-1.121c-12.799-5.224-18.483-18.295-18.483-39.209 0-16.062 5.686-28.011 18.483-35.854v-1.121c-35.327-11.573-51.496-33.047-51.496-64.415 0-27.267 11.874-47.244 35.033-59.939 18.295-10.086 41.789-15.127 70.173-15.127 69.085 0 103.703 28.941 103.703 86.832 0 36.223-26.661 58.441-80.064 66.658-12.323 1.863-21.643 6.348-27.991 13.445-4.854 4.854-7.271 9.709-7.271 14.563 0 13.816 7.479 21.848 22.41 24.088 22.779 3.357 41.364 13.912 55.743 31.648 14.375 17.74 21.565 38.559 21.565 62.458 0 7.469-2.259 15.498-5.244 24.086 9.709 2.244 16.525 4.297 21.646 6.166v57.696c-22.527-8.964-43.495-13.442-61.421-13.442-15.687 8.961-31.912 13.442-50.21 13.442zM123.801 76.115c31.372 0 47.052-9.521 47.052-28.57 0-20.168-14.377-30.246-43.132-30.246-32.862 0-49.293 9.711-49.293 29.127-0.001 19.795 15.122 29.689 45.373 29.689zM119.88 224c-23.527 0-35.293 12.882-35.293 38.654 0 27.631 11.766 41.453 35.293 41.453 11.201 0 19.979-4.298 26.326-12.884 5.229-7.845 7.845-17.18 7.845-28.011 0-26.139-11.393-39.212-34.171-39.212zM290.192 480c-10.828 0-20.070-4.107-27.727-12.324-7.657-8.218-11.485-18.108-11.485-29.688 0-11.205 3.829-20.91 11.485-29.129 7.654-8.217 16.896-12.32 27.727-12.32 10.455 0 19.514 4.104 27.17 12.32 7.656 8.219 11.48 17.924 11.48 29.129 0 11.58-3.824 21.472-11.48 29.688-7.659 8.217-16.715 12.324-27.17 12.324zM321.565 352.001h-63.303c0.748-7.168-0.32-18.021-0.32-35.57v-174.216c0-17.928 1.068-32.387 0.32-38.018h63.303c-0.75 8.188-2.697 22.334-2.697 41.379v171.973c-0.003 16.432 1.947 27.284 2.697 34.452zM461.168 157.9c-16.436 0-24.541 12.514-24.541 37.533v103.32h24.932c4.48 0 8.516 0.246 13.559-0.123 5.043-0.374 7.076-0.125 9.639-0.125v53.495h-48.129v23.808c0 8.961 1.408 17.151 2.527 22.271h-64.979c1.121-5.12 1.014-12.938 1.014-23.395v-22.684h-28.16v-53.494c7.682 1.12 14.545 1.678 19.398 1.678l8.762-0.559v-101.393c0-31.371 3.979-54.336 11.818-68.9 10.461-19.42 28.811-29.129 56.068-29.129 19.424 0 36.559 3.732 49.357 11.205v56.016c-10.237-6.35-19.691-9.524-31.265-9.524z" />
<glyph unicode="&#xe638;" glyph-name="github5" d="M131.736 100.316c0-13.526 11.447-20.291 34.334-20.291 20.032 0 30.044 7.021 30.044 21.067 0 13.269-10.923 19.898-32.772 19.898-21.073 0.002-31.606-6.888-31.606-20.674zM426.674 480h-341.33c-46.938 0-85.344-38.405-85.344-85.344v-341.313c0-46.968 38.406-85.343 85.344-85.343h341.33c46.934 0 85.326 38.375 85.326 85.344v341.312c0 46.939-38.391 85.344-85.326 85.344zM237.864 275.506c-3.642-1.302-8.844-2.729-15.606-4.293 2.080-5.983 3.123-11.576 3.123-16.777 0-16.646-5.009-31.149-15.022-43.506-10.015-12.354-22.956-19.703-38.823-22.043-10.402-1.563-15.604-7.156-15.604-16.779 0-3.381 1.689-6.765 5.072-10.145 4.422-4.943 10.924-8.066 19.509-9.367 37.195-5.721 55.793-21.197 55.793-46.427 0-40.321-24.062-60.481-72.181-60.481-19.771 0-36.028 3.513-48.772 10.535-16.129 8.844-24.188 22.76-24.188 41.75 0 21.852 12.096 36.808 36.282 44.869v0.78c-8.842 5.462-13.263 13.785-13.263 24.972 0 14.566 4.162 23.672 12.484 27.311v0.781c-8.323 2.862-15.737 9.366-22.24 19.512-7.282 10.926-10.925 22.63-10.925 35.115 0 18.729 6.635 34.335 19.896 46.82 12.748 11.707 27.964 17.558 45.653 17.558 12.747 0 24.579-3.119 35.505-9.361 12.485 0 26.921 3.12 43.313 9.361l-0.006-40.185zM301.089 140.503h-44.093c0.521 5.201 0.779 14.042 0.779 26.532v121.346c0 12.227-0.261 20.682-0.779 25.359h44.093c-0.521-4.942-0.781-13.135-0.781-24.582v-119.782c0-13.267 0.261-22.892 0.781-28.873zM298.159 352.759c-5.332-5.722-11.641-8.581-18.923-8.581-7.543 0-13.979 2.859-19.313 8.581-5.333 5.726-8.001 12.486-8.001 20.289 0 8.067 2.668 14.956 8.001 20.683 5.333 5.721 11.77 8.584 19.313 8.584 7.282 0 13.592-2.863 18.923-8.584 5.333-5.728 7.999-12.615 7.999-20.683 0-7.803-2.666-14.564-7.999-20.289zM420.845 145.576c-9.627-5.205-21.203-7.803-34.729-7.803-18.985 0-32.124 6.76-39.405 20.287-5.465 10.145-8.193 26.14-8.193 47.99v69.842h0.389v0.781l-5.853 0.391c-3.382 0-7.806-0.391-13.267-1.171v37.847h19.117v15.216c0 7.285-0.389 13.14-1.17 17.56h45.259c-0.775-4.94-1.168-10.533-1.168-16.776v-15.999h33.943v-37.846c-1.299 0-3.705 0.129-7.218 0.389-3.512 0.261-6.828 0.393-9.949 0.393h-16.777v-72.572c0-17.432 5.725-26.145 17.167-26.145 8.063 0 15.348 2.209 21.854 6.632v-39.016zM160.608 279.797c-16.388 0-24.582-9.627-24.582-28.873 0-17.951 8.194-26.924 24.582-26.924 15.868 0 23.801 9.104 23.801 27.313 0 7.545-1.82 14.047-5.461 19.511-4.423 5.981-10.537 8.973-18.34 8.973z" />
<glyph unicode="&#xe639;" glyph-name="tumblr" d="M288.016 256l-0.001-117.092c0-29.709-0.385-46.828 2.765-55.25 3.125-8.377 10.959-17.073 19.495-22.101 11.342-6.794 24.271-10.188 38.854-10.188 25.927 0 41.239 3.424 66.871 20.27v-76.972c-21.85-10.276-40.933-16.297-58.662-20.461-17.75-4.121-36.93-6.203-57.532-6.203-23.414 0-37.228 2.943-55.205 8.828-17.979 5.934-33.33 14.403-46.010 25.27-12.725 10.961-21.511 22.604-26.424 34.916-4.913 12.318-7.358 30.207-7.358 53.622v179.55h-68.713v72.503c20.104 6.521 42.582 15.894 56.89 28.076 14.377 12.225 25.883 26.853 34.553 43.972 8.696 17.073 14.674 38.856 17.936 65.258h82.542l-0.001-127.998h127.984v-96h-127.984z" />
<glyph unicode="&#xe63a;" glyph-name="tumblr2" d="M426.69 480h-341.346c-46.939 0-85.343-38.407-85.343-85.343v-341.313c0-46.969 38.404-85.344 85.343-85.344h341.346c46.935 0 85.31 38.375 85.31 85.344v341.314c-0.004 46.935-38.379 85.342-85.31 85.342zM365.858 67.656c-15.076-7.094-28.764-12.094-41-14.969-12.248-2.845-25.48-4.279-39.701-4.279-16.156 0-25.688 2.029-38.094 6.094-12.404 4.094-23 9.936-31.75 17.436-8.779 7.564-14.843 15.599-18.233 24.097-3.392 8.502-5.078 20.846-5.078 37.002v123.901h-47.998v50.033c13.872 4.5 29.968 10.967 39.842 19.375 9.92 8.436 17.859 18.529 23.842 30.342 6.002 11.783 10.125 26.813 12.376 45.033h50.25v-81.721h81.686v-63.063h-81.689v-90.594c0-20.5-0.264-32.313 1.908-38.125 2.156-5.78 7.563-11.78 13.451-15.25 7.828-4.688 16.752-7.030 26.813-7.030 17.893 0 35.689 5.813 53.375 17.438v-55.72z" />
<glyph unicode="&#xe63b;" glyph-name="skype" d="M487.655 191.031c1.406 10.4 2.215 20.973 2.215 31.736 0 129.155-105.271 233.872-235.103 233.872-12.904 0-25.555-1.060-37.866-3.080-22.072 14.384-48.342 22.767-76.612 22.767-77.523 0-140.289-62.808-140.289-140.306 0-28.198 8.299-54.394 22.59-76.389-1.925-12.017-2.909-24.323-2.909-36.859 0-129.176 105.217-233.882 235.085-233.882 14.657 0 28.927 1.427 42.796 3.933 21.55-13.369 46.934-21.148 74.146-21.148 77.502-0.001 140.292 62.823 140.292 140.313-0.003 29.293-8.96 56.528-24.345 79.043zM276.74 50.404c-74.705-3.892-109.664 12.637-141.689 42.691-35.765 33.567-21.398 71.854 7.74 73.801 29.122 1.944 46.607-33.013 62.15-42.736 15.524-9.688 74.594-31.76 105.794 3.908 33.976 38.828-22.594 58.92-64.059 65.002-59.203 8.766-133.95 40.792-128.135 103.907 5.816 63.074 53.582 95.414 103.85 99.976 64.077 5.817 105.791-9.707 138.785-37.86 38.15-32.529 17.508-68.894-6.799-71.82-24.212-2.909-51.404 53.504-104.791 54.352-55.027 0.864-92.217-57.261-24.286-73.784 67.966-16.505 140.75-23.286 166.961-85.417 26.229-62.137-40.754-128.125-115.521-132.020z" />
<glyph unicode="&#xe63c;" glyph-name="linkedin" d="M426 480h-340c-47.3 0-86-38.7-86-86v-340c0-47.3 38.7-86 86-86h340c47.3 0 86 38.7 86 86v340c0 47.3-38.7 86-86 86zM192 64h-64v224h64v-224zM160 320c-17.673 0-32 14.327-32 32s14.327 32 32 32 32-14.327 32-32-14.327-32-32-32zM416 64h-64v128c0 17.673-14.327 32-32 32s-32-14.327-32-32v-128h-64v224h64v-39.736c13.199 18.132 33.376 39.736 56 39.736 39.765 0 72-35.817 72-80v-144z" />
<glyph unicode="&#xe63d;" glyph-name="pinterest" d="M256 480c-141.385 0-256-114.615-256-256s114.613-256 256-256c141.385 0 256 114.615 256 256s-114.615 256-256 256zM280.822 137.941c-23.26 1.807-33.021 13.328-51.252 24.404-10.030-52.588-22.282-103.008-58.57-129.343-11.202 79.484 16.447 139.182 29.285 202.557-21.892 36.853 2.635 111.017 48.81 92.737 56.813-22.474-49.2-137.004 21.966-151.308 74.31-14.934 104.644 128.929 58.571 175.712-66.579 67.553-193.799 1.54-178.155-95.178 3.807-23.646 28.236-30.819 9.762-63.451-42.61 9.446-55.325 43.051-53.688 87.856 2.634 73.337 65.892 124.682 129.343 131.783 80.242 8.982 155.553-29.454 165.953-104.938 11.706-85.195-36.224-177.465-122.025-170.831z" />
<glyph unicode="&#xe63e;" glyph-name="pinterest2" d="M426.675 480h-341.351c-47.125 0-85.324-38.21-85.324-85.343v-341.315c0-47.133 38.199-85.342 85.324-85.342h341.351c47.125 0 85.325 38.209 85.325 85.342v341.315c0 47.133-38.2 85.343-85.325 85.343zM280.822 137.941c-23.26 1.807-33.021 13.328-51.252 24.404-10.030-52.589-22.281-103.009-58.569-129.344-11.202 79.484 16.447 139.182 29.285 202.557-21.893 36.853 2.635 111.017 48.81 92.737 56.813-22.474-49.2-137.004 21.966-151.308 74.31-14.934 104.644 128.929 58.571 175.712-66.579 67.553-193.799 1.54-178.155-95.178 3.807-23.646 28.236-30.819 9.762-63.451-42.61 9.446-55.325 43.051-53.688 87.856 2.634 73.337 65.892 124.682 129.343 131.783 80.242 8.982 155.553-29.454 165.953-104.938 11.705-85.194-36.225-177.464-122.026-170.83z" />
<glyph unicode="&#xe63f;" glyph-name="search32" d="M497.914-17.913c-18.783-18.782-49.225-18.782-68.008 0l-84.863 84.863c-34.888-22.382-76.13-35.717-120.659-35.717-123.915 0-224.384 100.454-224.384 224.384s100.469 224.383 224.384 224.383c123.931 0 224.384-100.452 224.384-224.383 0-44.514-13.352-85.771-35.718-120.676l84.864-84.863c18.781-18.782 18.781-49.209 0-67.991zM224.384 415.891c-88.511 0-160.274-71.747-160.274-160.273s71.763-160.274 160.274-160.274c88.526 0 160.274 71.748 160.274 160.274s-71.748 160.273-160.274 160.273z" />
<glyph unicode="&#xe640;" glyph-name="facebook4" d="M0 10.667c0-23.573 19.093-42.667 42.667-42.667h426.667c23.573 0 42.667 19.093 42.667 42.667l-0.001 426.666c0 23.573-19.093 42.667-42.667 42.667h-426.666c-23.574 0-42.667-19.093-42.667-42.667v-426.666zM266.667 32v170.667h-42.667v64h42.667c0 109.973 4.682 117.333 138.666 117.333v-64c-70.613 0-64-3.947-64-53.333h64v-64h-64v-170.667h-74.666z" />
<glyph unicode="&#xe641;" glyph-name="twitter-old" d="M0 10.667c0-23.573 19.093-42.667 42.667-42.667h426.667c23.573 0 42.667 19.093 42.667 42.667l-0.001 426.666c0 23.573-19.093 42.667-42.667 42.667h-426.666c-23.574 0-42.667-19.093-42.667-42.667v-426.666zM330.667 213.333h-106.667v-32c0-11.733 9.6-21.333 21.333-21.333h85.333c23.573 0 42.667-19.093 42.667-42.667s-19.093-42.667-42.667-42.667l-106.666 0.001c-47.147 0-85.333 38.187-85.333 85.333v181.333c0 23.573 19.093 42.667 42.667 42.667s42.667-19.093 42.667-42.667v-42.667h106.667c23.573 0 42.667-19.093 42.667-42.667s-19.095-42.666-42.668-42.666z" />
<glyph unicode="&#xe642;" glyph-name="feed5" d="M0 10.667c0-23.573 19.093-42.667 42.667-42.667h426.667c23.573 0 42.667 19.093 42.667 42.667l-0.001 426.666c0 23.573-19.093 42.667-42.667 42.667h-426.666c-23.574 0-42.667-19.093-42.667-42.667v-426.666zM416 101.333c0-14.72-11.947-26.667-26.667-26.667s-26.666 11.947-26.666 26.667c0 120.747-97.931 218.667-218.667 218.667-14.72 0-26.667 11.947-26.667 26.667s11.947 26.667 26.667 26.667c79.147 0 144.107-27.307 195.093-78.293 52.256-52.268 76.907-117.121 76.907-193.708zM320 101.333c0-14.72-11.947-26.667-26.667-26.667s-26.666 11.947-26.666 26.667c0 67.734-54.934 122.667-122.667 122.667-14.72 0-26.667 11.947-26.667 26.667s11.947 26.667 26.667 26.667c97.173-0.001 176-78.838 176-176.001zM117.333 122.667c0 26.56 21.44 48 48 48s48-21.44 48-48-21.44-48-48-48-48 21.44-48 48z" />
<glyph unicode="&#xe643;" glyph-name="bird" d="M469.429 288h31.893c2.773 0 5.547 1.067 7.68 3.093 4.16 4.16 4.16 10.987 0 15.147-2.891 2.773-38.613 45.76-38.613 45.76s35.733 42.987 38.613 45.76c4.16 4.16 4.16 10.987 0 15.147-2.133 2.026-4.906 3.093-7.679 3.093h-51.317c-23.349 38.4-65.707 64-113.92 64-73.6 0-133.333-59.733-133.333-133.333 0-44.16-35.84-80-80-80h-101.537c-11.744 0-21.333-9.6-21.333-21.333l0.107-2.88c9.493-92.8 74.443-169.6 160.107-198.293v-49.493c0-14.72 11.947-26.667 26.667-26.667s26.667 11.947 26.667 26.667v38.293c7.040-0.64 14.187-0.96 21.333-0.96s14.293 0.32 21.333 0.96v-38.293c0-14.72 11.947-26.667 26.667-26.667s26.667 11.947 26.667 26.667v49.493c93.013 31.157 160 119.040 160 222.507l-0.002 21.332zM341.429 389.333c0 14.72 11.947 26.667 26.667 26.667s26.667-11.947 26.667-26.667-11.947-26.667-26.667-26.667-26.667 11.947-26.667 26.667zM258.656 231.893c15.040-32.651 9.163-72.544-17.707-99.413-26.453-26.56-65.707-32.651-98.027-18.24l-3.413 1.813c-6.827 3.627-11.403 10.773-11.403 18.987 0 6.293 2.667 11.947 6.933 15.893 2.123 1.92 88.213 88.107 88.213 88.107 8.427 8.427 22.080 8.427 30.4 0 1.28-1.28 2.453-2.667 3.317-4.16l1.687-2.987z" />
<glyph unicode="&#xe644;" glyph-name="search4" d="M316.288 330.688c23.040-5.333 41.376-24.96 46.709-46.4 1.824-10.027 10.56-17.6 21.024-17.6 11.733 0 21.333 9.6 21.333 21.333 0 15.36-12.907 38.72-30.507 56.213-17.28 17.067-37.867 29.12-54.827 29.12-11.733 0-21.333-9.92-21.333-21.653 0.001-10.442 7.574-19.2 17.601-21.013zM23.061 51.008c-16.533-16.523-16.533-43.413 0-59.936 16.533-16.544 43.413-16.544 59.84 0l122.549 122.453c28.597-17.835 62.293-28.171 98.56-28.171 103.147 0 186.667 83.52 186.667 186.667s-83.52 186.667-186.667 186.667-186.667-83.52-186.667-186.667c0-36.16 10.357-69.973 28.171-98.56l-122.453-122.453zM170.688 272.021c0 73.6 59.744 133.333 133.333 133.333 73.6 0 133.333-59.733 133.333-133.333s-59.733-133.333-133.333-133.333c-73.589 0.011-133.333 59.744-133.333 133.333z" />
<glyph unicode="&#xe645;" glyph-name="pointer" d="M0 35.84c59.52-36.8 128.651-57.173 196.907-57.173 30.069 0 59.52 3.093 88 10.667 19.627 5.547 35.093 21.643 35.093 42.667 0 12.683-5.547 24.213-14.4 32l3.733-0.001c23.573 0 42.667 19.093 42.667 42.667s-19.093 42.667-42.667 42.667h21.333c23.573 0 42.667 19.093 42.667 42.667s-19.093 42.667-42.667 42.667h138.667c23.573 0 42.667 19.093 42.667 42.667s-19.093 42.667-42.667 42.667l-243.317-0.002c-11.829 0-21.333 9.6-21.333 21.333 0 2.016 0.32 3.947 0.853 5.76l24.533 60.373c2.891 5.761 4.598 12.267 4.598 19.201 0 23.573-19.093 42.667-42.667 42.667-17.707 0-32.96-10.88-39.467-26.24-35.733-69.227-79.573-124.694-152.533-163.521v-243.733z" />
<glyph unicode="&#xe646;" glyph-name="pointer2" d="M444.171 480c36.789-59.52 57.162-128.651 57.162-196.907 0-30.080-3.093-59.52-10.667-88-5.546-19.626-21.642-35.093-42.666-35.093-12.683 0-24.213 5.547-32 14.4v-3.733c0-23.573-19.093-42.667-42.667-42.667s-42.667 19.093-42.667 42.667v-21.333c0-23.573-19.093-42.667-42.667-42.667s-42.667 19.093-42.667 42.667v-138.667c0-23.573-19.093-42.667-42.667-42.667s-42.667 19.093-42.667 42.667l0.002 243.317c0 11.829-9.6 21.333-21.333 21.333-2.027 0-3.947-0.32-5.867-0.853l-60.267-24.533c-5.76-2.891-12.266-4.598-19.2-4.598-23.573 0-42.667 19.093-42.667 42.667 0 17.707 10.88 32.96 26.24 39.467 69.227 35.733 124.694 79.573 163.521 152.533h243.744z" />
<glyph unicode="&#xe647;" glyph-name="times" d="M371.498 328.832c-16.64 16.661-43.69 16.661-60.33 0l-55.168-55.168-55.168 55.168c-16.64 16.661-43.69 16.661-60.331 0-16.662-16.661-16.662-43.67 0-60.33l55.147-55.168-55.147-55.168c-16.662-16.661-16.662-43.669 0-60.331 8.32-8.341 19.243-12.502 30.166-12.502s21.845 4.16 30.166 12.502l55.168 55.168 55.168-55.168c8.32-8.341 19.243-12.502 30.166-12.502s21.846 4.16 30.166 12.502c16.661 16.661 16.661 43.669 0 60.331l-55.147 55.168 55.147 55.168c16.661 16.661 16.661 43.669 0 60.33z" />
<glyph unicode="&#xe648;" glyph-name="plus4" d="M384 256h-85.334v85.334c0 23.552-19.115 42.666-42.666 42.666s-42.666-19.114-42.666-42.666l1.514-85.334h-86.848c-23.552 0-42.666-19.114-42.666-42.667s19.115-42.666 42.666-42.666l86.848 1.514-1.514-86.848c0-23.552 19.114-42.666 42.666-42.666s42.666 19.115 42.666 42.666v86.848l85.334-1.514c23.552 0 42.666 19.115 42.666 42.666s-19.115 42.667-42.666 42.667z" />
<glyph unicode="&#xe649;" glyph-name="minus4" d="M384 234.667h-256c-23.552 0-42.666-19.115-42.666-42.667s19.115-42.666 42.666-42.666h256c23.552 0 42.666 19.115 42.666 42.666s-19.115 42.667-42.666 42.667z" />
<glyph unicode="&#xe64a;" glyph-name="arrow-right-thick" d="M225.834 328.832c-16.661-16.618-16.661-43.67 0-60.33l33.834-33.835h-154.538c-23.552 0-42.666-19.094-42.666-42.667 0-23.552 19.115-42.666 42.666-42.666h154.538l-33.834-33.834c-16.661-16.618-16.661-43.669 0-60.331 8.341-8.341 19.243-12.502 30.166-12.502s21.824 4.16 30.166 12.502l136.832 136.832-136.832 136.832c-16.661 16.661-43.669 16.661-60.331 0z" />
<glyph unicode="&#xe64b;" glyph-name="th-menu" d="M405.334 106.667h-298.666c-23.531 0-42.666-19.136-42.666-42.666s19.136-42.666 42.666-42.666h298.666c23.531 0 42.666 19.136 42.666 42.666s-19.136 42.666-42.666 42.666zM405.334 256h-298.666c-23.531 0-42.666-19.136-42.666-42.667s19.136-42.666 42.666-42.666h298.666c23.531 0 42.666 19.136 42.666 42.666s-19.136 42.667-42.666 42.667zM405.334 405.333h-298.666c-23.531 0-42.666-19.136-42.666-42.667s19.136-42.666 42.666-42.666h298.666c23.531 0 42.666 19.136 42.666 42.666s-19.136 42.667-42.666 42.667z" />
<glyph unicode="&#xe64c;" glyph-name="arrow-down-thick" d="M392.832 242.005c-16.661 16.661-43.669 16.661-60.331 0l-33.834-33.835v154.496c0 23.573-19.115 42.666-42.666 42.666-23.573 0-42.666-19.094-42.666-42.666v-154.496l-33.834 33.835c-16.661 16.662-43.669 16.662-60.331 0s-16.662-43.67 0-60.331l136.832-136.832 136.832 136.832c16.661 16.661 16.661 43.648 0 60.331z" />
<glyph unicode="&#xe64d;" glyph-name="times-outline" d="M341.334 64c-17.11 0-33.173 6.656-45.269 18.752l-40.064 40.086-40.085-40.086c-24.171-24.171-66.326-24.171-90.517 0-12.075 12.075-18.73 28.16-18.73 45.248s6.656 33.173 18.752 45.269l40.064 40.064-40.064 40.086c-12.096 12.075-18.752 28.16-18.752 45.248s6.656 33.173 18.752 45.269c24.171 24.149 66.326 24.171 90.518-0.022l40.064-40.085 40.086 40.085c24.171 24.171 66.325 24.171 90.517 0 12.075-12.075 18.731-28.16 18.731-45.248s-6.656-33.173-18.752-45.269l-40.064-40.064 40.064-40.086c12.096-12.075 18.752-28.16 18.752-45.248s-6.656-33.173-18.752-45.269c-12.075-12.075-28.139-18.731-45.248-18.731zM256 183.168l70.25-70.25c8.064-8.064 22.123-8.043 30.166 0 4.032 4.032 6.25 9.365 6.25 15.082s-2.219 11.050-6.25 15.082l-70.229 70.25 70.23 70.25c4.032 4.032 6.25 9.387 6.25 15.083s-2.219 11.050-6.25 15.083c-8.064 8.085-22.123 8.064-30.166 0.021l-70.25-70.272-70.25 70.251c-8.064 8.064-22.123 8.042-30.166 0-4.032-4.032-6.25-9.387-6.25-15.083s2.219-11.050 6.25-15.083l70.23-70.25-70.23-70.25c-4.032-4.032-6.25-9.365-6.25-15.082s2.219-11.050 6.25-15.082c8.064-8.086 22.123-8.064 30.166-0.022l70.25 70.272z" />
<glyph unicode="&#xe64e;" glyph-name="plus-outline" d="M256 21.333c-35.286 0-64 28.714-64 64l1.131 65.13-64.746-1.13c-35.669 0-64.384 28.714-64.384 64s28.715 64 64 64l65.13 1.152-1.131 62.464c0 35.669 28.715 64.384 64 64.384s64-28.714 64-64l1.173-62.848 63.211-1.152c34.901 0 63.616-28.715 63.616-64s-28.714-64-64-64l-62.827 1.13-1.173-65.514c0-34.901-28.714-63.616-64-63.616zM234.667 192v-107.050c0-11.37 9.578-20.95 21.333-20.95s21.334 9.579 21.334 21.334v106.666h107.050c11.37 0 20.95 9.579 20.95 21.334s-9.579 21.334-21.334 21.334h-106.666v106.667c0 12.139-9.579 21.333-21.334 21.333s-21.334-9.578-21.334-21.333v-106.667h-106.666c-12.139 0-21.334-9.578-21.334-21.334s9.579-21.334 21.334-21.334h106.666z" />
<glyph unicode="&#xe64f;" glyph-name="minus-outline" d="M384 128h-256c-35.285 0-64 28.714-64 64s28.715 64 64 64h256c35.286 0 64-28.714 64-64s-28.714-64-64-64zM128 213.333c-11.755 0-21.334-9.579-21.334-21.334s9.579-21.334 21.334-21.334h256c11.755 0 21.334 9.579 21.334 21.334s-9.579 21.334-21.334 21.334h-256z" />
<glyph unicode="&#xe650;" glyph-name="th-small-outline" d="M128 128h-42.666c-23.552 0-42.666-19.115-42.666-42.666v-42.666c0-23.552 19.114-42.666 42.666-42.666h42.666c23.552 0 42.666 19.115 42.666 42.666v42.666c0 23.552-19.114 42.666-42.666 42.666zM128 42.667h-42.666v42.666h42.666v-42.666zM128 277.333h-42.666c-23.552 0-42.666-19.115-42.666-42.667v-42.667c0-23.552 19.114-42.666 42.666-42.666h42.666c23.552 0 42.666 19.115 42.666 42.666v42.667c0 23.552-19.114 42.667-42.666 42.667zM128 192h-42.666v42.667h42.666v-42.667zM128 426.667h-42.666c-23.552 0-42.666-19.115-42.666-42.666v-42.666c0-23.552 19.114-42.667 42.666-42.667h42.666c23.552 0 42.666 19.115 42.666 42.667v42.666c0 23.552-19.114 42.666-42.666 42.666zM128 341.333h-42.666v42.666h42.666v-42.666zM277.334 128h-42.666c-23.552 0-42.666-19.115-42.666-42.666v-42.666c0-23.552 19.114-42.666 42.666-42.666h42.666c23.552 0 42.666 19.115 42.666 42.666v42.666c0 23.552-19.115 42.666-42.666 42.666zM277.334 42.667h-42.666v42.666h42.666v-42.666zM277.334 277.333h-42.666c-23.552 0-42.666-19.115-42.666-42.667v-42.667c0-23.552 19.114-42.666 42.666-42.666h42.666c23.552 0 42.666 19.115 42.666 42.666v42.667c0 23.552-19.115 42.667-42.666 42.667zM277.334 192h-42.666v42.667h42.666v-42.667zM277.334 426.667h-42.666c-23.552 0-42.666-19.115-42.666-42.666v-42.666c0-23.552 19.114-42.667 42.666-42.667h42.666c23.552 0 42.666 19.115 42.666 42.667v42.666c0 23.552-19.115 42.666-42.666 42.666zM277.334 341.333h-42.666v42.666h42.666v-42.666zM426.666 128h-42.666c-23.552 0-42.666-19.115-42.666-42.666v-42.666c0-23.552 19.115-42.666 42.666-42.666h42.666c23.552 0 42.666 19.115 42.666 42.666v42.666c0 23.552-19.115 42.666-42.666 42.666zM426.666 42.667h-42.666v42.666h42.666v-42.666zM426.666 277.333h-42.666c-23.552 0-42.666-19.115-42.666-42.667v-42.667c0-23.552 19.115-42.666 42.666-42.666h42.666c23.552 0 42.666 19.115 42.666 42.666v42.667c0 23.552-19.115 42.667-42.666 42.667zM426.666 192h-42.666v42.667h42.666v-42.667zM426.666 426.667h-42.666c-23.552 0-42.666-19.115-42.666-42.666v-42.666c0-23.552 19.115-42.667 42.666-42.667h42.666c23.552 0 42.666 19.115 42.666 42.667v42.666c0 23.552-19.115 42.666-42.666 42.666zM426.666 341.333h-42.666v42.666h42.666v-42.666z" />
<glyph unicode="&#xe651;" glyph-name="th-menu-outline" d="M405.334 85.333c11.733 0 21.334-9.6 21.334-21.334s-9.6-21.334-21.334-21.334h-298.666c-11.733 0-21.334 9.6-21.334 21.334s9.6 21.334 21.334 21.334h298.666M405.334 128h-298.666c-35.285 0-64-28.714-64-64s28.715-64 64-64h298.666c35.286 0 64 28.714 64 64s-28.714 64-64 64zM405.334 234.667c11.733 0 21.334-9.6 21.334-21.334s-9.6-21.334-21.334-21.334h-298.666c-11.733 0-21.334 9.6-21.334 21.334s9.6 21.334 21.334 21.334h298.666M405.334 277.333h-298.666c-35.285 0-64-28.715-64-64s28.715-64 64-64h298.666c35.286 0 64 28.714 64 64s-28.714 64-64 64zM405.334 384c11.733 0 21.334-9.6 21.334-21.333s-9.6-21.333-21.334-21.333h-298.666c-11.733 0-21.334 9.6-21.334 21.333s9.6 21.334 21.334 21.334h298.666M405.334 426.667h-298.666c-35.285 0-64-28.714-64-64s28.715-64 64-64h298.666c35.286 0 64 28.715 64 64s-28.714 64-64 64z" />
<glyph unicode="&#xe652;" glyph-name="zoom-outline" d="M298.666 298.667c35.328 0 64-28.672 64-64s-28.672-64-64-64-64 28.672-64 64 28.672 64 64 64M298.666 320c-47.061 0-85.334-38.272-85.334-85.333s38.272-85.334 85.334-85.334 85.334 38.272 85.334 85.334-38.272 85.334-85.334 85.334zM89.493 92.288c0-36.843 29.952-66.795 66.795-66.795 16.128 0 32.064 5.909 44.886 16.704l51.136 50.901c14.613-4.842 30.123-7.765 46.358-7.765 82.346 0 149.333 67.008 149.333 149.334s-66.986 149.333-149.333 149.333c-82.326 0-149.333-67.008-149.333-149.333 0-16.235 2.901-31.702 7.766-46.358l-47.894-48.704c-12.715-12.587-19.712-29.397-19.712-47.317zM227.286 128.427l-53.589-53.568c-4.757-3.99-10.752-6.678-17.408-6.678-13.312 0-24.128 10.795-24.128 24.128 0 6.635 2.709 12.672 7.083 17.002l53.162 53.995c9.28-13.76 21.12-25.6 34.88-34.88zM298.666 128c-58.816 0-106.666 47.851-106.666 106.667s47.851 106.666 106.666 106.666 106.666-47.851 106.666-106.666-47.851-106.667-106.666-106.667z" />
<glyph unicode="&#xe653;" glyph-name="arrow-down5" d="M213.312 341.333v-192h-96l138.667-138.538 138.667 138.538h-96v193.002c0 23.040-19.072 41.664-42.666 41.664-23.616 0-42.666-19.626-42.666-42.666z" />
<glyph unicode="&#xe654;" glyph-name="arrow-right5" d="M106.666 170.667h192v-96l138.538 138.667-138.538 138.667v-96h-193.002c-23.040 0-41.664-19.072-41.664-42.667s19.627-42.666 42.666-42.666z" />
<glyph unicode="&#xe655;" glyph-name="search6" d="M16.918 17.749l30.165-30.166 93.547 93.546-29.376 30.954-94.336-94.336zM301.334 448c-104.534 0-189.333-84.779-189.333-189.334 0-40.938 13.162-78.72 35.243-109.718l35.626-37.546c32.448-26.176 73.536-42.091 118.464-42.091 104.576 0 189.334 84.779 189.334 189.334s-84.757 189.354-189.333 189.354zM301.334 112c-80.875 0-146.667 65.792-146.667 146.667s65.792 146.667 146.667 146.667 146.666-65.792 146.666-146.667-65.792-146.667-146.667-146.667z" />
<glyph unicode="&#xe656;" glyph-name="plus5" d="M248 8c-114.88 0-208 93.12-208 208s93.12 208 208 208 208-93.12 208-208-93.12-208-208-208zM351.008 224.992c0 8.832-7.168 16-16 16h-64v64c0 8.832-7.152 16-16 16h-16c-8.848 0-16-7.168-16-16v-64h-64c-8.848 0-16-7.168-16-16v-16c0-8.848 7.152-16 16-16h64v-64c0-8.848 7.152-16 16-16h16c8.848 0 16 7.152 16 16v64h64c8.832 0 16 7.152 16 16v16z" />
<glyph unicode="&#xe657;" glyph-name="plus6" d="M256 16c-114.88 0-208 93.12-208 208s93.12 208 208 208 208-93.12 208-208-93.12-208-208-208zM256 384c-88.352 0-160-71.632-160-160 0-88.352 71.648-160 160-160 88.368 0 160 71.648 160 160 0 88.368-71.632 160-160 160zM319.808 208h-48v-48c0-8.848-7.168-16-16-16-8.848 0-16 7.152-16 16v48h-48c-8.848 0-16 7.168-16 16s7.152 16 16 16h48v48c0 8.848 7.152 16 16 16 8.832 0 16-7.152 16-16v-48h48c8.832 0 16-7.168 16-16s-7.168-16-16-16z" />
<glyph unicode="&#xe658;" glyph-name="minus5" d="M248 424c-114.88 0-208-93.12-208-208s93.12-208 208-208c114.88 0 208 93.12 208 208s-93.12 208-208 208zM352 210c0-8.848-7.168-16-16-16h-176c-8.848 0-16 7.152-16 16v16c0 8.832 7.152 16 16 16h176c8.832 0 16-7.168 16-16v-16z" />
<glyph unicode="&#xe659;" glyph-name="minus6" d="M256 432c-114.88 0-208-93.12-208-208s93.12-208 208-208 208 93.12 208 208-93.12 208-208 208zM256 64c-88.352 0-160 71.648-160 160 0 88.368 71.648 160 160 160 88.368 0 160-71.632 160-160 0-88.352-71.632-160-160-160zM315.808 240h-128c-8.848 0-16-7.168-16-16 0-8.848 7.152-16 16-16h128c8.848 0 16 7.152 16 16 0 8.832-7.152 16-16 16z" />
<glyph unicode="&#xe65a;" glyph-name="cancel2" d="M313.392 223.984l97.536-97.536c6.336-6.336 6.336-16.624 0-22.96l-34.416-34.416c-6.336-6.336-16.608-6.336-22.96 0l-97.552 97.536-97.552-97.536c-6.336-6.336-16.608-6.336-22.944 0l-34.432 34.416c-6.336 6.336-6.336 16.608 0 22.96l97.552 97.536-97.552 97.552c-6.336 6.336-6.336 16.624 0 22.96l34.448 34.416c6.336 6.336 16.608 6.336 22.944 0l97.536-97.552 97.552 97.552c6.336 6.336 16.608 6.336 22.96 0l34.416-34.432c6.336-6.336 6.336-16.608 0-22.96l-97.536-97.536z" />
<glyph unicode="&#xe65b;" glyph-name="magnifier" d="M466.496 0.624l-11.344-11.344c-12.56-12.544-32.88-12.544-45.408 0l-90.816 90.784c-10.496 10.528-11.664 26.304-4.496 38.592l-49.664 49.632c-26.704-19.808-59.648-31.664-95.44-31.664-88.64 0-160.496 71.856-160.496 160.496 0 88.656 71.856 160.512 160.496 160.512 88.656 0 160.496-71.856 160.496-160.512 0-41.264-15.68-78.768-41.28-107.2l48.56-48.56c12.288 7.152 28.064 6 38.56-4.528l90.816-90.784c12.544-12.56 12.544-32.896 0.016-45.424zM289.408 297.776c0 66.48-53.904 120.368-120.384 120.368s-120.384-53.872-120.384-120.368 53.888-120.368 120.368-120.368 120.4 53.888 120.4 120.368z" />
<glyph unicode="&#xe65c;" glyph-name="grid3" d="M128 288h64v64h-64v-64zM224 288h64v64h-64v-64zM320 352v-64h64v64h-64zM128 192h64v64h-64v-64zM224 192h64v64h-64v-64zM320 192h64v64h-64v-64zM128 96h64v64h-64v-64zM224 96h64v64h-64v-64zM320 96h64v64h-64v-64z" />
<glyph unicode="&#xe65d;" glyph-name="grid4" d="M128 240h112v112h-112v-112zM272 352v-112h112v112h-112zM272 96h112v112h-112v-112zM128 96h112v112h-112v-112z" />
<glyph unicode="&#xe65e;" glyph-name="list" d="M128 352v-64h256v64h-256zM128 192h256v64h-256v-64zM128 96h256v64h-256v-64z" />
<glyph unicode="&#xe65f;" glyph-name="add" d="M424 48h-48c-4.416 0-8 3.584-8 8s3.584 8 8 8h40v40c0 4.416 3.584 8 8 8 4.4 0 8-3.584 8-8v-48c0-4.416-3.6-8-8-8zM424 144c-4.416 0-8 3.584-8 8v48c0 4.416 3.584 8 8 8 4.4 0 8-3.584 8-8v-48c0-4.416-3.6-8-8-8zM424 240c-4.416 0-8 3.584-8 8v48c0 4.416 3.584 8 8 8 4.4 0 8-3.584 8-8v-48c0-4.416-3.6-8-8-8zM424 336c-4.416 0-8 3.584-8 8v40h-40c-4.416 0-8 3.584-8 8s3.584 8 8 8h48c4.4 0 8-3.584 8-8v-48c0-4.416-3.6-8-8-8zM328 48h-48c-4.416 0-8 3.584-8 8s3.584 8 8 8h48c4.4 0 8-3.584 8-8s-3.6-8-8-8zM328 384h-48c-4.416 0-8 3.584-8 8s3.584 8 8 8h48c4.4 0 8-3.584 8-8s-3.6-8-8-8zM319.008 240c8.832 0 16-7.152 16-16 0-8.832-7.168-16-16-16h-48v-48c0-8.832-7.168-16-16-16-8.848 0-16 7.168-16 16v48h-48c-8.832 0-16 7.168-16 16 0 8.848 7.152 16 16 16h48v48c0 8.848 7.152 16 16 16 8.832 0 16-7.152 16-16v-48h48zM232 384h-48c-4.416 0-8 3.584-8 8s3.584 8 8 8h48c4.4 0 8-3.584 8-8s-3.6-8-8-8zM136 48h-48c-4.416 0-8 3.584-8 8v48c0 4.416 3.584 8 8 8s8-3.584 8-8v-40h40c4.416 0 8-3.584 8-8s-3.584-8-8-8zM136 384h-40v-40c0-4.416-3.584-8-8-8s-8 3.584-8 8v48c0 4.416 3.584 8 8 8h48c4.416 0 8-3.584 8-8s-3.584-8-8-8zM88 304c4.416 0 8-3.584 8-8v-48c0-4.416-3.584-8-8-8s-8 3.584-8 8v48c0 4.416 3.584 8 8 8zM88 208c4.416 0 8-3.584 8-8v-48c0-4.416-3.584-8-8-8s-8 3.584-8 8v48c0 4.416 3.584 8 8 8zM184 64h48c4.4 0 8-3.584 8-8s-3.6-8-8-8h-48c-4.416 0-8 3.584-8 8s3.584 8 8 8z" />
<glyph unicode="&#xe660;" glyph-name="minus7" d="M136 400h-48c-4.416 0-8-3.584-8-8v-48c0-4.416 3.584-8 8-8s8 3.584 8 8v40h40c4.416 0 8 3.584 8 8s-3.584 8-8 8zM184 384h48c4.4 0 8 3.584 8 8s-3.6 8-8 8h-48c-4.416 0-8-3.584-8-8s3.584-8 8-8zM328 400h-48c-4.416 0-8-3.584-8-8s3.584-8 8-8h48c4.4 0 8 3.584 8 8s-3.6 8-8 8zM424 400h-48c-4.416 0-8-3.584-8-8s3.584-8 8-8h40v-40c0-4.416 3.584-8 8-8 4.4 0 8 3.584 8 8v48c0 4.416-3.6 8-8 8zM424 304c-4.416 0-8-3.584-8-8v-48c0-4.416 3.584-8 8-8 4.4 0 8 3.584 8 8v48c0 4.416-3.6 8-8 8zM424 208c-4.416 0-8-3.584-8-8v-48c0-4.416 3.584-8 8-8 4.4 0 8 3.584 8 8v48c0 4.416-3.6 8-8 8zM424 112c-4.416 0-8-3.584-8-8v-40h-40c-4.416 0-8-3.584-8-8s3.584-8 8-8h48c4.4 0 8 3.584 8 8v48c0 4.416-3.6 8-8 8zM328 64h-48c-4.416 0-8-3.584-8-8s3.584-8 8-8h48c4.4 0 8 3.584 8 8s-3.6 8-8 8zM232 64h-48c-4.416 0-8-3.584-8-8s3.584-8 8-8h48c4.4 0 8 3.584 8 8s-3.6 8-8 8zM136 64h-40v40c0 4.416-3.584 8-8 8s-8-3.584-8-8v-48c0-4.416 3.584-8 8-8h48c4.416 0 8 3.584 8 8s-3.584 8-8 8zM88 144c4.416 0 8 3.584 8 8v48c0 4.416-3.584 8-8 8s-8-3.584-8-8v-48c0-4.416 3.584-8 8-8zM88 240c4.416 0 8 3.584 8 8v48c0 4.416-3.584 8-8 8s-8-3.584-8-8v-48c0-4.416 3.584-8 8-8zM191.008 208h128c8.848 0 16 7.168 16 16 0 8.848-7.152 16-16 16h-128c-8.848 0-16-7.152-16-16 0-8.832 7.152-16 16-16z" />
<glyph unicode="&#xe661;" glyph-name="search7" d="M320 479.92c-106.032 0-192-85.968-192-192 0-32.416 8.112-62.928 22.32-89.728l-133.504-133.472 0.112-0.096c-10.432-10.256-16.928-24.464-16.928-40.256 0-31.184 25.28-56.464 56.464-56.464 15.76 0 29.984 6.496 40.24 16.944l-0.032 0.032 133.456 133.44c26.816-14.256 57.376-22.4 89.872-22.4 106.032 0 192 85.968 192 192s-85.968 192-192 192zM76.72 4.848c-5.152-5.344-12.288-8.688-20.256-8.688-15.6 0-28.24 12.624-28.24 28.224 0 7.968 3.36 15.088 8.688 20.256l-0.144 0.128 129.056 129.056c11.28-15.216 24.72-28.656 39.904-39.968l-129.008-129.008zM320 127.904c-88.352 0-160 71.664-160 160 0 88.352 71.648 160 160 160 88.336 0 160-71.648 160-160 0-88.336-71.664-160-160-160zM320 399.92c4.4 0 8-3.584 8-8s-3.6-8-8-8c-53.024 0-96-42.992-96-96 0-4.416-3.584-8-8-8s-8 3.584-8 8c0 61.856 50.128 112 112 112z" />
<glyph unicode="&#xe662;" glyph-name="search8" d="M512 23.273c0-46.546-46.546-46.546-46.546-46.546l-133.166 133.144c-34.514-25.088-76.87-40.053-122.834-40.053-115.689 0-209.454 93.766-209.454 209.454s93.766 209.455 209.454 209.455 209.454-93.766 209.454-209.455c0-45.963-14.988-88.32-40.075-122.856l133.166-133.143zM209.454 442.182c-89.972 0-162.909-72.937-162.909-162.909s72.936-162.909 162.909-162.909 162.909 72.936 162.909 162.909-72.936 162.909-162.909 162.909z" />
<glyph unicode="&#xe663;" glyph-name="cross2" d="M367.334 149.709l-70.605 80.691 70.605 80.691c12.007 12.007 12.007 31.463 0 43.443s-31.462 11.981-43.443 0l-67.891-77.593-67.865 77.568c-12.006 12.006-31.463 12.006-43.443 0s-11.981-31.463 0-43.443l70.579-80.666-70.605-80.691c-11.981-12.007-11.981-31.411 0-43.392 12.006-12.007 31.463-12.007 43.443 0l67.891 77.543 67.865-77.543c12.007-12.007 31.462-12.007 43.443 0s12.007 31.385 0.026 43.392z" />
<glyph unicode="&#xe664;" glyph-name="minus9" d="M409.6 435.2h-307.2c-28.16 0-51.2-23.040-51.2-51.2v-307.2c0-28.16 23.040-51.2 51.2-51.2h307.2c28.16 0 51.2 23.040 51.2 51.2v307.2c0 28.16-23.040 51.2-51.2 51.2zM384 204.8h-256v51.2h256v-51.2z" />
<glyph unicode="&#xe665;" glyph-name="plus8" d="M409.6 435.2h-307.2c-28.16 0-51.2-23.040-51.2-51.2v-307.2c0-28.16 23.040-51.2 51.2-51.2h307.2c28.16 0 51.2 23.040 51.2 51.2v307.2c0 28.16-23.040 51.2-51.2 51.2zM384 204.8h-102.4v-102.4h-51.2v102.4h-102.4v51.2h102.4v102.4h51.2v-102.4h102.4v-51.2z" />
<glyph unicode="&#xe666;" glyph-name="layout" d="M189.44 384h-46.080c-28.16 0-40.96-12.8-40.96-40.96v-46.080c0-28.16 12.8-40.96 40.96-40.96h46.080c28.16 0 40.96 12.8 40.96 40.96v46.080c0 28.16-12.8 40.96-40.96 40.96zM368.64 384h-46.080c-28.16 0-40.96-12.8-40.96-40.96v-46.080c0-28.16 12.8-40.96 40.96-40.96h46.080c28.16 0 40.96 12.8 40.96 40.96v46.080c0 28.16-12.8 40.96-40.96 40.96zM189.44 204.8h-46.080c-28.16 0-40.96-12.8-40.96-40.96v-46.080c0-28.16 12.8-40.96 40.96-40.96h46.080c28.16 0 40.96 12.8 40.96 40.96v46.080c0 28.16-12.8 40.96-40.96 40.96zM368.64 204.8h-46.080c-28.16 0-40.96-12.8-40.96-40.96v-46.080c0-28.16 12.8-40.96 40.96-40.96h46.080c28.16 0 40.96 12.8 40.96 40.96v46.080c0 28.16-12.8 40.96-40.96 40.96z" />
<glyph unicode="&#xe667;" glyph-name="list2" d="M409.6 256h-307.2c-14.131 0-25.6-11.469-25.6-25.6s11.469-25.6 25.6-25.6h307.2c14.157 0 25.6 11.469 25.6 25.6s-11.443 25.6-25.6 25.6zM102.4 307.2h307.2c14.157 0 25.6 11.469 25.6 25.6s-11.443 25.6-25.6 25.6h-307.2c-14.131 0-25.6-11.469-25.6-25.6s11.469-25.6 25.6-25.6zM409.6 153.6h-307.2c-14.131 0-25.6-11.443-25.6-25.6s11.469-25.6 25.6-25.6h307.2c14.157 0 25.6 11.443 25.6 25.6s-11.443 25.6-25.6 25.6z" />
<glyph unicode="&#xe668;" glyph-name="video" d="M506.88 358.4v30.72c0 11.315-9.19 20.48-20.48 20.48h-460.8c-11.315 0-20.48-9.165-20.48-20.48v-30.72h51.2v-51.2h-51.2v-51.2h51.2v-51.2h-51.2v-51.2h51.2v-51.2h-51.2v-30.72c0-11.315 9.165-20.48 20.48-20.48h460.8c11.289 0 20.48 9.165 20.48 20.48v30.72h-51.2v51.2h51.2v51.2h-51.2v51.2h51.2v51.2h-51.2v51.2h51.2zM199.68 153.6v153.6l128-76.8-128-76.8z" />
<glyph unicode="&#xe669;" glyph-name="arrow-down7" d="M450.56 230.016l-97.997 0.026 0.026 179.609h-193.331v-179.635l-97.817 0.026 194.56-194.151z" />
<glyph unicode="&#xe66a;" glyph-name="arrow-right7" d="M256.384 424.96v-97.997l-179.635 0.026v-193.331h179.635v-97.817l194.125 194.56z" />
<glyph unicode="&#xe66b;" glyph-name="arrow-down8" d="M424.96 230.016l-97.997 0.026 0.026 179.609h-142.131v-179.635l-97.817 0.026 168.96-194.151z" />
<glyph unicode="&#xe66c;" glyph-name="arrow-right8" d="M256.384 399.36v-97.997l-179.635 0.026v-142.131h179.635v-97.817l194.125 168.986z" />
<glyph unicode="&#xe66d;" glyph-name="arrow-down9" d="M373.76 332.774l-235.52 0.026 117.76-204.8z" />
<glyph unicode="&#xe66e;" glyph-name="arrow-right9" d="M153.625 348.16l-0.025-235.52 204.8 117.76z" />
<glyph unicode="&#xe66f;" glyph-name="arrow-down10" d="M396.365 267.187c-10.419-10.701-120.192-115.277-120.192-115.277-5.581-5.709-12.877-8.55-20.173-8.55-7.322 0-14.618 2.841-20.173 8.55 0 0-109.773 104.576-120.218 115.277-10.419 10.701-11.136 29.926 0 41.37 11.162 11.417 26.701 12.313 40.345 0l100.045-95.949 100.019 95.923c13.671 12.314 29.235 11.418 40.346 0 11.161-11.417 10.471-30.669 0-41.344z" />
<glyph unicode="&#xe670;" glyph-name="arrow-right10" d="M219.213 370.791c10.701-10.445 115.251-120.218 115.251-120.218 5.735-5.581 8.576-12.877 8.576-20.173s-2.841-14.592-8.576-20.173c0 0-104.55-109.773-115.251-120.192-10.701-10.445-29.927-11.161-41.369 0-11.417 11.136-12.314 26.675 0 40.32l95.949 100.045-95.923 100.045c-12.314 13.67-11.417 29.209 0 40.345s30.669 10.445 41.344 0z" />
<glyph unicode="&#xe671;" glyph-name="arrow-down11" d="M66.099 343.014c-6.938 6.861-18.151 6.861-25.063 0-6.912-6.835-6.912-17.946 0-24.807l202.445-200.448c6.938-6.861 18.125-6.861 25.063 0l202.445 200.448c6.912 6.861 6.938 17.945 0 24.806s-18.176 6.861-25.063 0.026l-189.927-182.81-189.901 182.784z" />
<glyph unicode="&#xe672;" glyph-name="uniE672" d="M143.352 40.499c-6.861-6.938-6.861-18.125 0-25.063s17.946-6.938 24.806 0l200.448 202.419c6.861 6.938 6.861 18.151 0 25.063l-200.448 202.445c-6.861 6.938-17.946 6.938-24.806 0s-6.861-18.125 0-25.063l182.784-189.901-182.784-189.901z" />
<glyph unicode="&#xe673;" glyph-name="arrow-right11" d="M384.461 102.4l-0.026 82.637-379.315-0.026v90.957h379.341l-0.026 82.432 122.445-128z" />
<glyph unicode="&#xe674;" glyph-name="github62" d="M337.408 196.864c-18.381 0-33.28-20.634-33.28-46.055 0-25.447 14.899-46.080 33.28-46.080s33.28 20.634 33.28 46.080c-0.026 25.447-14.925 46.055-33.28 46.055zM453.274 316.774c3.789 9.344 3.968 62.464-16.231 113.305 0 0-46.387-5.069-116.531-53.222-14.72 4.070-39.629 6.093-64.512 6.093-24.909 0-49.792-2.048-64.537-6.093-70.118 48.154-116.48 53.222-116.48 53.222-20.198-50.841-20.045-103.961-16.23-113.305-23.757-25.805-38.272-56.781-38.272-99.097 0-183.962 152.627-186.905 191.155-186.905 8.73 0 26.087-0.026 44.39-0.051 18.304 0.026 35.661 0.051 44.339 0.051 38.553 0 191.155 2.944 191.155 186.905 0 42.317-14.49 73.293-38.246 99.098zM256.717 53.376h-1.408c-96.563 0-171.776 11.52-171.776 105.37 0 22.477 7.962 43.341 26.778 60.647 31.463 28.851 84.633 13.568 144.999 13.568 0.231 0 0.487 0 0.717 0.025 0.256 0 0.486-0.025 0.691-0.025 60.365 0 113.562 15.283 144.999-13.568 18.816-17.305 26.752-38.17 26.752-60.647 0-93.85-75.161-105.37-171.75-105.37zM174.618 196.864c-18.381 0-33.28-20.634-33.28-46.055 0-25.447 14.899-46.080 33.28-46.080s33.28 20.634 33.28 46.080c0 25.447-14.899 46.055-33.28 46.055z" />
<glyph unicode="&#xe675;" glyph-name="flickr5" d="M126.029 128c-55.475 0-100.429 45.798-100.429 102.4s44.953 102.4 100.429 102.4c55.475 0 100.454-45.824 100.454-102.4s-44.979-102.4-100.454-102.4zM385.945 128c-55.501 0-100.505 45.798-100.505 102.4s45.005 102.4 100.505 102.4c55.45 0 100.454-45.824 100.454-102.4s-45.005-102.4-100.454-102.4z" />
<glyph unicode="&#xe676;" glyph-name="flickr6" d="M256 476.16c-135.731 0-245.76-110.029-245.76-245.76s110.029-245.76 245.76-245.76 245.76 110.029 245.76 245.76-110.003 245.76-245.76 245.76zM190.336 178.662c-28.032 0-50.739 23.142-50.739 51.738s22.707 51.738 50.739 51.738c28.032 0 50.765-23.143 50.765-51.738-0.025-28.595-22.733-51.738-50.765-51.738zM321.639 178.662c-28.058 0-50.765 23.142-50.765 51.738s22.707 51.738 50.765 51.738c28.007 0 50.739-23.143 50.739-51.738 0.026-28.595-22.733-51.738-50.739-51.738z" />
</font>
</defs>
</svg>
